<?xml version="1.0" standalone="no"?>
<!DOCTYPE svg PUBLIC "-//W3C//DTD SVG 1.1//EN" "http://www.w3.org/Graphics/SVG/1.1/DTD/svg11.dtd" >
<svg xmlns="http://www.w3.org/2000/svg" xmlns:xlink="http://www.w3.org/1999/xlink" version="1.1">
<metadata>
Created by FontForge 20170731 at Fri Jun 24 09:31:59 2022
 By Aleksey,,,
(c)2009 Commercial Type.
</metadata>
<defs>
<font id="Graphik-Bold" horiz-adv-x="1228" >
  <font-face 
    font-family="Graphik Bold"
    font-weight="700"
    font-stretch="normal"
    units-per-em="2048"
    panose-1="2 11 8 3 3 2 2 6 2 3"
    ascent="1690"
    descent="-358"
    x-height="1071"
    cap-height="1464"
    bbox="-498 -475 2454 2329"
    underline-thickness="102"
    underline-position="-307"
    unicode-range="U+0020-FB02"
  />
<missing-glyph horiz-adv-x="1024" 
 />
    <glyph glyph-name="f_f" unicode="ff" horiz-adv-x="1466" 
d="M164 0v821h-135v250h135v82q0 194 111 292.5t307 98.5q85 0 163 -20v-269q-51 15 -98 15q-59 0 -89 -32t-30 -85v-82h312v94q0 194 112.5 294t307.5 100q73 0 167 -23v-268q-47 14 -100 14q-61 0 -91 -31t-30 -86v-94h217v-250h-217v-821h-366v821h-312v-821h-364z" />
    <glyph glyph-name=".notdef" horiz-adv-x="1024" 
 />
    <glyph glyph-name=".null" horiz-adv-x="0" 
 />
    <glyph glyph-name="nonmarkingreturn" horiz-adv-x="682" 
 />
    <glyph glyph-name="space" unicode=" " horiz-adv-x="403" 
 />
    <glyph glyph-name="exclam" unicode="!" horiz-adv-x="684" 
d="M342 -23q-91 0 -154 59t-63 144t63 145t154 60t155 -60t64 -145t-64 -144t-155 -59zM190 481l-55 983h414l-55 -983h-304z" />
    <glyph glyph-name="quotedbl" unicode="&#x22;" horiz-adv-x="946" 
d="M125 901l-41 563h344l-43 -563h-260zM561 901l-43 563h346l-43 -563h-260z" />
    <glyph glyph-name="numbersign" unicode="#" horiz-adv-x="1179" 
d="M553 203l43 291h-127l-43 -291h-248l43 291h-141v288h184l23 156h-158v274h199l37 252h247l-37 -252h127l39 252h248l-39 -252h148v-274h-189l-22 -156h162v-288h-205l-43 -291h-248zM535 938l-23 -156h127l23 156h-127z" />
    <glyph glyph-name="dollar" unicode="$" horiz-adv-x="1325" 
d="M590 -276v256q-258 18 -394 146t-147 337h379q8 -77 45 -126t117 -67v299q-270 39 -389 146t-119 319q0 187 137 309.5t371 139.5v182h160v-184q461 -39 497 -443h-370q-10 62 -38.5 100t-88.5 54v-283q124 -18 214 -48t161 -81t107 -130.5t36 -188.5q0 -198 -131.5 -331
t-386.5 -150v-256h-160zM887 416q0 53 -28.5 81t-108.5 46v-273q67 13 102 51.5t35 94.5zM451 1065q0 -56 29 -85t110 -46v262q-68 -12 -103.5 -46.5t-35.5 -84.5z" />
    <glyph glyph-name="percent" unicode="%" horiz-adv-x="1693" 
d="M440 958q56 0 86.5 42.5t30.5 115.5t-30.5 114.5t-86.5 41.5q-57 0 -89 -41t-32 -113q0 -76 32 -118t89 -42zM438 745q-178 0 -282.5 104.5t-104.5 266.5q0 156 111 260.5t278 104.5q165 0 276 -101.5t111 -257.5q0 -163 -107 -270t-282 -107zM242 0l1015 1464h201
l-1016 -1464h-200zM1255 190q58 0 88.5 41.5t30.5 116.5q0 72 -30.5 113t-88.5 41q-55 0 -86.5 -41t-31.5 -113q0 -76 31 -117t87 -41zM1253 -25q-178 0 -282.5 104.5t-104.5 266.5q0 156 111.5 260.5t277.5 104.5q167 0 277 -101t110 -258q0 -163 -107 -270t-282 -107z" />
    <glyph glyph-name="ampersand" unicode="&#x26;" horiz-adv-x="1560" 
d="M1530 762l-236 -463l244 -299h-477l-86 106q-78 -63 -170.5 -97t-224.5 -34q-236 0 -375 118t-139 325q0 274 321 426q-90 129 -90 256q0 121 64.5 209.5t170 131t236.5 42.5q89 0 168 -22t141 -64t98.5 -108t36.5 -148q0 -120 -71.5 -209.5t-220.5 -153.5l184 -225
l106 209h320zM643 281q85 0 143 61l-231 279q-98 -59 -98 -158q0 -82 48 -132t138 -50zM657 1096q0 -67 84 -164q146 70 146 178q0 50 -30 81.5t-79 31.5q-54 0 -87.5 -34t-33.5 -93z" />
    <glyph glyph-name="quotesingle" unicode="'" horiz-adv-x="524" 
d="M125 901l-41 563h358l-43 -563h-274z" />
    <glyph glyph-name="parenleft" unicode="(" horiz-adv-x="729" 
d="M418 -303q-340 409 -340 944q0 537 340 946h287q-277 -429 -277 -946q0 -515 277 -944h-287z" />
    <glyph glyph-name="parenright" unicode=")" horiz-adv-x="729" 
d="M23 -301q276 421 276 946q0 523 -276 944h286q342 -406 342 -944q0 -540 -342 -946h-286z" />
    <glyph glyph-name="asterisk" unicode="*" horiz-adv-x="901" 
d="M338 758l-221 157l182 185l-240 26l70 252l225 -108l-49 252h293l-49 -252l223 108l72 -252l-242 -26l182 -185l-219 -157l-114 235z" />
    <glyph glyph-name="plus" unicode="+" horiz-adv-x="1167" 
d="M436 170v393h-360v266h360v394h295v-394h361v-266h-361v-393h-295z" />
    <glyph glyph-name="comma" unicode="," horiz-adv-x="626" 
d="M250 -250l-217 84l172 539l340 -121z" />
    <glyph glyph-name="hyphen" unicode="-" horiz-adv-x="782" 
d="M104 446v277h574v-277h-574z" />
    <glyph glyph-name="period" unicode="." horiz-adv-x="612" 
d="M303 -23q-90 0 -149.5 60t-59.5 147t59.5 147t149.5 60q92 0 153.5 -60t61.5 -147t-61.5 -147t-153.5 -60z" />
    <glyph glyph-name="slash" unicode="/" horiz-adv-x="888" 
d="M-49 -303l649 1892h293l-651 -1892h-291z" />
    <glyph glyph-name="zero" unicode="0" horiz-adv-x="1499" 
d="M754 301q133 0 192.5 99t59.5 305v59q0 203 -62 303t-194 100q-131 0 -193.5 -99.5t-62.5 -303.5v-62q0 -205 63 -303t197 -98zM741 -25q-310 0 -488.5 191t-178.5 534v62q0 170 51 307.5t142 228t214.5 139t268.5 48.5q146 0 268 -45.5t213.5 -133t142.5 -225t51 -311.5
v-57q0 -346 -184 -542t-500 -196z" />
    <glyph glyph-name="one" unicode="1" horiz-adv-x="921" 
d="M344 0v1051l-278 -172v350l335 235h363v-1464h-420z" />
    <glyph glyph-name="two" unicode="2" horiz-adv-x="1259" 
d="M16 0v59l512 543q122 132 182 225t60 179q0 76 -40 119.5t-116 43.5q-81 0 -128 -55.5t-60 -181.5h-381q10 271 165 412t425 141q262 0 405.5 -127.5t143.5 -335.5q0 -141 -70 -259.5t-207 -250.5l-205 -199h492v-313h-1178z" />
    <glyph glyph-name="three" unicode="3" horiz-adv-x="1335" 
d="M668 -25q-299 0 -450.5 131t-160.5 375h373q20 -202 215 -202q95 0 144 43t49 122q0 172 -193 172h-117v261h109q97 0 145.5 41.5t48.5 119.5q0 68 -43 107t-124 39q-84 0 -133.5 -48.5t-61.5 -138.5h-371q14 224 162 356t414 132q256 0 403.5 -109t147.5 -293
q0 -121 -65 -200.5t-183 -114.5q129 -27 207 -114.5t78 -217.5q0 -213 -154.5 -337t-439.5 -124z" />
    <glyph glyph-name="four" unicode="4" horiz-adv-x="1388" 
d="M750 0v281h-713v157l610 1026h506v-895h188v-288h-188v-281h-403zM432 569h328v580z" />
    <glyph glyph-name="five" unicode="5" horiz-adv-x="1292" 
d="M629 -25q-142 0 -252 37t-179 103.5t-105 153.5t-40 192h381q12 -84 54 -127t137 -43q87 0 131.5 57t44.5 150q0 99 -52 154t-147 55q-152 0 -242 -105h-249l30 862h987v-307h-684l-8 -323q107 155 342 155q204 0 324.5 -131t120.5 -366t-159 -376t-435 -141z" />
    <glyph glyph-name="six" unicode="6" horiz-adv-x="1380" 
d="M719 -25q-171 0 -297 52.5t-201 150t-111 225.5t-36 289v39q0 175 50 318.5t138.5 238t208.5 146t260 51.5q249 0 390.5 -109t164.5 -323h-385q-11 59 -47 91t-109 32q-119 0 -184.5 -100.5t-71.5 -287.5q54 82 134.5 126t207.5 44q101 0 188.5 -30.5t154 -88t105 -148
t38.5 -202.5q0 -234 -160.5 -374t-437.5 -140zM715 272q87 0 140.5 59.5t53.5 153.5t-52.5 152.5t-141.5 58.5t-144 -59t-55 -148q0 -97 54.5 -157t144.5 -60z" />
    <glyph glyph-name="seven" unicode="7" horiz-adv-x="1179" 
d="M229 0l410 1124h-590v340h1114v-43l-508 -1421h-426z" />
    <glyph glyph-name="eight" unicode="8" horiz-adv-x="1345" 
d="M672 -25q-282 0 -446.5 114.5t-164.5 324.5q0 127 68.5 220t198.5 138q-205 92 -205 303q0 127 76 221.5t200 141.5t277 47q157 0 281 -47t198 -140.5t74 -220.5q0 -209 -207 -303q129 -44 195.5 -134t66.5 -216q0 -210 -165.5 -329.5t-446.5 -119.5zM674 270
q89 0 143.5 50t54.5 137t-53.5 136.5t-142.5 49.5t-145 -49.5t-56 -136.5q0 -86 55.5 -136.5t143.5 -50.5zM678 881q74 0 123 44t49 117q0 72 -50 116t-124 44q-73 0 -122.5 -44t-49.5 -116q0 -73 50.5 -117t123.5 -44z" />
    <glyph glyph-name="nine" unicode="9" horiz-adv-x="1382" 
d="M659 -23q-258 0 -406 112.5t-171 324.5h385q24 -125 172 -125q128 0 187.5 94.5t64.5 286.5q-52 -83 -129 -127.5t-203 -44.5q-143 0 -253.5 52.5t-176.5 161t-66 259.5q0 232 163 374t440 142q160 0 283.5 -52t201 -147.5t117 -226t39.5 -291.5v-49
q0 -357 -167.5 -550.5t-480.5 -193.5zM659 768q90 0 145.5 58t55.5 147q0 98 -55 158.5t-146 60.5q-87 0 -140.5 -60t-53.5 -155q0 -92 52.5 -150.5t141.5 -58.5z" />
    <glyph glyph-name="colon" unicode=":" horiz-adv-x="624" 
d="M309 -23q-89 0 -149 60t-60 147t60 147t149 60q92 0 153.5 -60t61.5 -147t-61.5 -147t-153.5 -60zM309 563q-89 0 -149 59.5t-60 147.5q0 87 60 147t149 60q92 0 153.5 -60t61.5 -147q0 -88 -61.5 -147.5t-153.5 -59.5z" />
    <glyph glyph-name="semicolon" unicode=";" horiz-adv-x="657" 
d="M238 -250l-218 84l170 539l340 -121zM356 563q-90 0 -149.5 59.5t-59.5 147.5q0 87 59.5 147t149.5 60q92 0 153.5 -60t61.5 -147q0 -88 -61.5 -147.5t-153.5 -59.5z" />
    <glyph glyph-name="less" unicode="&#x3c;" horiz-adv-x="1050" 
d="M948 121l-862 504v69l862 504v-332l-389 -204l389 -218v-323z" />
    <glyph glyph-name="equal" unicode="=" horiz-adv-x="1140" 
d="M80 342v250h981v-250h-981zM80 743v252h981v-252h-981z" />
    <glyph glyph-name="greater" unicode="&#x3e;" horiz-adv-x="1050" 
d="M100 123v334l392 202l-392 218v323l865 -504v-69z" />
    <glyph glyph-name="question" unicode="?" horiz-adv-x="1138" 
d="M346 481v39q0 45 13.5 88.5t28.5 72.5t49 69t51 57t59 57q46 45 68 68.5t43.5 61t21.5 71.5q0 123 -125 123q-66 0 -108.5 -47.5t-53.5 -132.5h-356q7 227 156 352t391 125q236 0 364.5 -101t128.5 -284q0 -93 -39 -165.5t-110 -141.5q-24 -24 -74.5 -70t-76.5 -72
t-52.5 -65t-32.5 -74v-31h-346zM520 -23q-92 0 -156.5 59t-64.5 144t64.5 145t156.5 60q89 0 153 -60t64 -145q0 -84 -63.5 -143.5t-153.5 -59.5z" />
    <glyph glyph-name="at" unicode="@" horiz-adv-x="1886" 
d="M942 -324q-202 0 -370.5 66t-280 179.5t-173 266t-61.5 326.5q0 198 76.5 369t204.5 286t295 180.5t348 65.5q180 0 336.5 -54t269 -150t176.5 -236t64 -305q0 -147 -38 -259.5t-102 -176.5t-140.5 -96t-162.5 -32q-256 0 -301 168q-84 -172 -274 -172q-152 0 -243 102.5
t-91 278.5q0 213 117 347.5t289 134.5q167 0 223 -123l14 106h301l-69 -559q-16 -135 90 -135q94 0 158.5 104.5t64.5 315.5q0 269 -184.5 433.5t-493.5 164.5q-211 0 -382 -92t-271.5 -266.5t-100.5 -401.5q0 -147 46 -272.5t134 -220t226.5 -148t312.5 -53.5
q169 0 305.5 51t221.5 131h186q-102 -149 -294.5 -236.5t-426.5 -87.5zM907 344q69 0 116.5 67t47.5 171q0 68 -33.5 106.5t-97.5 38.5q-69 0 -113.5 -64.5t-44.5 -166.5q0 -67 32.5 -109.5t92.5 -42.5z" />
    <glyph glyph-name="A" unicode="A" horiz-adv-x="1529" 
d="M27 0l469 1464h542l465 -1464h-444l-78 272h-485l-78 -272h-391zM739 1124l-161 -563h321z" />
    <glyph glyph-name="B" unicode="B" horiz-adv-x="1390" 
d="M141 0v1464h654q250 0 371.5 -102.5t121.5 -280.5v-8q0 -250 -248 -315q140 -24 216.5 -109t76.5 -233v-8q0 -199 -132 -303.5t-400 -104.5h-660zM551 281h174q195 0 195 170v8q0 85 -49.5 126.5t-157.5 41.5h-162v-346zM551 883h160q97 0 138.5 35t41.5 114v8
q0 76 -42.5 111t-137.5 35h-160v-303z" />
    <glyph glyph-name="C" unicode="C" horiz-adv-x="1554" 
d="M829 -25q-189 0 -335 53.5t-239 152.5t-141 235.5t-48 306.5v16q0 221 97.5 392.5t267 263.5t382.5 92q296 0 475 -140.5t205 -422.5h-432q-25 231 -246 231q-143 0 -225 -108.5t-82 -305.5v-16q0 -198 81.5 -306t231.5 -108q114 0 186 61t87 179h417q-14 -186 -105 -317
t-238.5 -195t-338.5 -64z" />
    <glyph glyph-name="D" unicode="D" horiz-adv-x="1521" 
d="M563 324h96q186 0 273.5 99t87.5 304v16q0 209 -87 303.5t-278 94.5h-92v-817zM141 0v1464h533q386 0 585 -184.5t199 -529.5v-17q0 -347 -202 -540t-584 -193h-531z" />
    <glyph glyph-name="E" unicode="E" horiz-adv-x="1253" 
d="M141 0v1464h1012v-323h-594v-252h473v-299h-473v-266h627v-324h-1045z" />
    <glyph glyph-name="F" unicode="F" horiz-adv-x="1185" 
d="M141 0v1464h989v-325h-567v-312h453v-309h-453v-518h-422z" />
    <glyph glyph-name="G" unicode="G" horiz-adv-x="1611" 
d="M831 -25q-183 0 -329.5 55t-242 154.5t-146 236.5t-50.5 302v16q0 164 58.5 304.5t160.5 237.5t244 151.5t305 54.5q106 0 201 -19t180 -61t148.5 -104t104 -153t48.5 -202h-415q-31 209 -264 209q-155 0 -243.5 -113t-88.5 -311v-16q0 -93 18 -167t57 -132.5
t106.5 -90.5t160.5 -32q144 0 214 62t77 159h-275v293h688v-180q0 -141 -46 -259.5t-134.5 -207t-226 -138t-310.5 -49.5z" />
    <glyph glyph-name="H" unicode="H" horiz-adv-x="1605" 
d="M141 0v1464h422v-559h481v559h420v-1464h-420v578h-481v-578h-422z" />
    <glyph glyph-name="I" unicode="I" horiz-adv-x="720" 
d="M150 0v1464h423v-1464h-423z" />
    <glyph glyph-name="J" unicode="J" horiz-adv-x="978" 
d="M334 -18q-166 0 -266 49v313q89 -29 178 -29q92 0 141 47t49 156v946h422v-950q0 -263 -132.5 -397.5t-391.5 -134.5z" />
    <glyph glyph-name="K" unicode="K" horiz-adv-x="1486" 
d="M141 0v1464h422v-579l441 579h438l-537 -680l565 -784h-485l-422 612v-612h-422z" />
    <glyph glyph-name="L" unicode="L" horiz-adv-x="1177" 
d="M141 0v1464h422v-1138h553v-326h-975z" />
    <glyph glyph-name="M" unicode="M" horiz-adv-x="1929" 
d="M141 0v1464h547l281 -780l280 780h537v-1464h-418v911l-358 -911h-140l-354 911v-911h-375z" />
    <glyph glyph-name="N" unicode="N" horiz-adv-x="1591" 
d="M141 0v1464h473l469 -825v825h367v-1464h-406l-534 920v-920h-369z" />
    <glyph glyph-name="O" unicode="O" horiz-adv-x="1677" 
d="M840 305q156 0 246 113t90 309v16q0 194 -91 304t-247 110q-157 0 -246.5 -109t-89.5 -307v-16q0 -197 92 -308.5t246 -111.5zM831 -25q-175 0 -319.5 55t-242.5 153.5t-152 237t-54 302.5v16q0 164 59.5 304t163.5 236.5t246.5 151t305.5 54.5q223 0 398.5 -88
t276.5 -256t101 -391v-17q0 -339 -215 -548.5t-568 -209.5z" />
    <glyph glyph-name="P" unicode="P" horiz-adv-x="1335" 
d="M141 0v1464h557q296 0 442 -125.5t146 -363.5v-8q0 -229 -148 -351t-421 -122h-158v-494h-418zM559 780h121q101 0 154 47t53 138v8q0 176 -205 176h-123v-369z" />
    <glyph glyph-name="Q" unicode="Q" horiz-adv-x="1677" 
d="M1255 -246l-237 240q-93 -19 -187 -19q-175 0 -319.5 55t-242.5 153.5t-152 237t-54 302.5v16q0 164 59.5 304t163.5 236.5t246.5 151t305.5 54.5q223 0 398.5 -88t276.5 -256t101 -391v-17q0 -190 -71 -343.5t-202 -254.5l148 -147zM502 725q0 -163 55.5 -267
t155.5 -143l235 217l131 -133q97 118 97 328v16q0 194 -91 304t-247 110q-157 0 -246.5 -109t-89.5 -307v-16z" />
    <glyph glyph-name="R" unicode="R" horiz-adv-x="1427" 
d="M141 0v1464h574q290 0 443 -117.5t153 -347.5v-8q0 -284 -264 -385l350 -606h-443l-297 524h-98v-524h-418zM559 797h135q211 0 211 178v8q0 87 -52.5 126.5t-156.5 39.5h-137v-352z" />
    <glyph glyph-name="S" unicode="S" horiz-adv-x="1325" 
d="M678 -25q-305 0 -463.5 125t-167.5 365h399q9 -89 60 -140t172 -51q89 0 138.5 40t49.5 106t-47 93t-184 48q-209 25 -328.5 78.5t-172 146t-52.5 242.5q0 201 154 329t413 128q538 0 578 -457h-389q-21 158 -189 158q-83 0 -126.5 -34t-43.5 -91q0 -63 47 -94t181 -49
q117 -13 201.5 -32.5t155.5 -54t114 -83.5t66.5 -120t23.5 -165q0 -101 -40 -189.5t-113.5 -155t-186 -105t-250.5 -38.5z" />
    <glyph glyph-name="T" unicode="T" horiz-adv-x="1265" 
d="M422 0v1141h-379v323h1180v-323h-379v-1141h-422z" />
    <glyph glyph-name="U" unicode="U" horiz-adv-x="1564" 
d="M780 -25q-313 0 -481 157t-168 462v870h420v-852q0 -162 50 -234.5t179 -72.5q128 0 179 72.5t51 240.5v846h424v-864q0 -312 -172 -468.5t-482 -156.5z" />
    <glyph glyph-name="V" unicode="V" horiz-adv-x="1490" 
d="M510 0l-485 1464h452l297 -1028l299 1028h393l-479 -1464h-477z" />
    <glyph glyph-name="W" unicode="W" horiz-adv-x="2039" 
d="M369 0l-340 1464h424l188 -913l197 913h372l213 -921l199 921h389l-342 -1464h-438l-225 930l-228 -930h-409z" />
    <glyph glyph-name="X" unicode="X" horiz-adv-x="1546" 
d="M45 0l453 754l-418 710h477l229 -436l226 436h430l-393 -696l452 -768h-479l-272 504l-273 -504h-432z" />
    <glyph glyph-name="Y" unicode="Y" horiz-adv-x="1386" 
d="M494 0v627l-478 837h457l248 -493l248 493h401l-455 -837v-627h-421z" />
    <glyph glyph-name="Z" unicode="Z" horiz-adv-x="1284" 
d="M27 0v47l622 1096h-543v321h1139v-45l-614 -1095h583v-324h-1187z" />
    <glyph glyph-name="bracketleft" unicode="[" horiz-adv-x="837" 
d="M135 -303v1892h625v-268h-256v-1356h256v-268h-625z" />
    <glyph glyph-name="backslash" unicode="\" horiz-adv-x="888" 
d="M647 -303l-651 1892h293l649 -1892h-291z" />
    <glyph glyph-name="bracketright" unicode="]" horiz-adv-x="837" 
d="M80 -303v268h254v1356h-254v268h622v-1892h-622z" />
    <glyph glyph-name="asciicircum" unicode="^" horiz-adv-x="1087" 
d="M47 805l336 659h322l335 -659h-313l-186 360l-187 -360h-307z" />
    <glyph glyph-name="underscore" unicode="_" horiz-adv-x="888" 
d="M-2 -330v176h893v-176h-893z" />
    <glyph glyph-name="grave" unicode="`" horiz-adv-x="819" 
d="M293 1194l-215 340h368l109 -340h-262z" />
    <glyph glyph-name="a" unicode="a" horiz-adv-x="1183" 
d="M410 -25q-75 0 -138.5 19t-115 56.5t-80.5 101t-29 145.5q0 183 146 266.5t423 83.5h103v25q0 85 -29.5 127.5t-111.5 42.5q-131 0 -146 -127h-344q12 189 149 287t363 98q230 0 356.5 -99.5t126.5 -306.5v-694h-356v125q-98 -150 -317 -150zM537 223q79 0 130.5 42
t51.5 110v65h-96q-113 0 -163 -26t-50 -90q0 -47 32 -74t95 -27z" />
    <glyph glyph-name="b" unicode="b" horiz-adv-x="1316" 
d="M807 -25q-118 0 -204.5 51.5t-127.5 139.5v-166h-366v1542h366v-631q50 84 135 136.5t199 52.5q95 0 176.5 -35.5t143.5 -103.5t97.5 -175t35.5 -241v-17q0 -135 -35.5 -241.5t-98 -174t-144 -102.5t-177.5 -35zM678 256q103 0 157 70t54 202v17q0 138 -56 208t-155 70
q-101 0 -157 -71t-56 -205v-17q0 -135 56 -204.5t157 -69.5z" />
    <glyph glyph-name="c" unicode="c" horiz-adv-x="1193" 
d="M614 -25q-162 0 -287.5 60.5t-200.5 186t-75 300.5v17q0 173 78 302t206.5 194t287.5 65q103 0 190.5 -24t161.5 -74t119.5 -137.5t52.5 -205.5h-344q-12 77 -53.5 116.5t-118.5 39.5q-98 0 -151.5 -69.5t-53.5 -202.5v-17q0 -282 211 -282q78 0 127.5 46t58.5 132h330
q-8 -207 -146.5 -327t-392.5 -120z" />
    <glyph glyph-name="d" unicode="d" horiz-adv-x="1314" 
d="M506 -25q-95 0 -175.5 34t-142.5 100.5t-97.5 173t-35.5 241.5v17q0 134 35.5 241t97 176t144 105.5t178.5 36.5q229 0 330 -180v622h366v-1542h-366v174q-42 -88 -129.5 -143.5t-204.5 -55.5zM635 256q102 0 158.5 70t56.5 204v17q0 134 -54.5 205t-156.5 71
q-211 0 -211 -278v-17q0 -133 55 -202.5t152 -69.5z" />
    <glyph glyph-name="e" unicode="e" horiz-adv-x="1224" 
d="M633 -25q-259 0 -420.5 145.5t-161.5 401.5v17q0 168 77.5 297t209 196.5t293.5 67.5q113 0 209.5 -33t172.5 -98.5t119.5 -173.5t43.5 -248v-96h-754q8 -106 66.5 -165t156.5 -59q161 0 186 127h345q-25 -183 -163.5 -281t-379.5 -98zM426 657h393q-5 98 -52.5 149.5
t-135.5 51.5q-84 0 -138 -52.5t-67 -148.5z" />
    <glyph glyph-name="f" unicode="f" horiz-adv-x="790" 
d="M164 0v821h-135v250h135v94q0 195 112 294.5t308 99.5q74 0 168 -23v-268q-47 14 -101 14q-62 0 -92.5 -31t-30.5 -86v-94h217v-250h-217v-821h-364z" />
    <glyph glyph-name="g" unicode="g" horiz-adv-x="1312" 
d="M610 -397q-514 0 -561 397h365q13 -65 58 -102t138 -37q117 0 172.5 60t55.5 165v164q-45 -84 -132 -140.5t-200 -56.5q-195 0 -325 137.5t-130 376.5v17q0 231 130.5 373.5t324.5 142.5q231 0 332 -180v151h366v-981q0 -238 -153 -362.5t-441 -124.5zM635 324
q98 0 155.5 65.5t57.5 179.5v15q0 112 -55.5 176.5t-155.5 64.5q-101 0 -156 -65.5t-55 -177.5v-17q0 -111 55.5 -176t153.5 -65z" />
    <glyph glyph-name="h" unicode="h" horiz-adv-x="1277" 
d="M109 0v1542h366v-643q46 90 136 145.5t216 55.5q161 0 256 -102.5t95 -301.5v-696h-367v623q0 91 -37.5 135.5t-116.5 44.5q-84 0 -133 -51.5t-49 -151.5v-600h-366z" />
    <glyph glyph-name="i" unicode="i" horiz-adv-x="604" 
d="M119 0v1071h366v-1071h-366zM301 1174q-87 0 -144 53.5t-57 134.5q0 82 57.5 136t143.5 54q87 0 145 -54t58 -136q0 -81 -58 -134.5t-145 -53.5z" />
    <glyph glyph-name="j" unicode="j" horiz-adv-x="604" 
d="M-12 -377v266q68 5 99.5 35t31.5 92v1055h364v-1063q0 -91 -23.5 -158.5t-78.5 -120t-153 -79.5t-240 -27zM301 1174q-87 0 -144 53.5t-57 134.5q0 82 57.5 136t143.5 54q87 0 145 -54t58 -136q0 -81 -58 -134.5t-145 -53.5z" />
    <glyph glyph-name="k" unicode="k" horiz-adv-x="1181" 
d="M109 0v1542h366v-895l289 424h381l-350 -481l379 -590h-410l-289 469v-469h-366z" />
    <glyph glyph-name="l" unicode="l" horiz-adv-x="602" 
d="M119 0v1542h364v-1542h-364z" />
    <glyph glyph-name="m" unicode="m" horiz-adv-x="1906" 
d="M109 0v1071h366v-164q47 84 133 138.5t203 54.5q213 0 291 -178q131 178 354 178q158 0 254 -102.5t96 -297.5v-700h-366v639q0 80 -36 121t-101 41q-75 0 -119.5 -47t-44.5 -133v-621h-363v639q0 80 -36 121t-101 41q-75 0 -119.5 -47t-44.5 -133v-621h-366z" />
    <glyph glyph-name="n" unicode="n" horiz-adv-x="1277" 
d="M109 0v1071h366v-172q46 90 136 145.5t216 55.5q161 0 256 -102.5t95 -301.5v-696h-367v623q0 91 -37.5 135.5t-116.5 44.5q-84 0 -133 -51.5t-49 -151.5v-600h-366z" />
    <glyph glyph-name="o" unicode="o" horiz-adv-x="1273" 
d="M639 248q102 0 156.5 73t54.5 207v17q0 136 -53.5 208t-157.5 72q-103 0 -158 -70.5t-55 -205.5v-17q0 -139 54 -211.5t159 -72.5zM637 -25q-166 0 -298 63.5t-210 189t-78 294.5v17q0 168 78 297t211 196.5t299 67.5q165 0 297 -66t209.5 -192.5t77.5 -292.5v-17
q0 -128 -45 -233.5t-124 -176t-186 -109t-231 -38.5z" />
    <glyph glyph-name="p" unicode="p" horiz-adv-x="1316" 
d="M109 -358v1429h366v-160q50 84 135 136.5t199 52.5q95 0 176.5 -35.5t143.5 -103.5t97.5 -175t35.5 -241v-17q0 -135 -35.5 -241.5t-98 -174t-144 -102.5t-177.5 -35q-118 0 -204.5 50t-127.5 133v-516h-366zM678 256q103 0 157 70t54 202v17q0 138 -56 208t-155 70
q-101 0 -157 -71t-56 -205v-17q0 -135 56 -204.5t157 -69.5z" />
    <glyph glyph-name="q" unicode="q" horiz-adv-x="1314" 
d="M840 -358v524q-43 -82 -131 -136.5t-203 -54.5q-95 0 -175.5 34t-142.5 100.5t-97.5 173t-35.5 241.5v17q0 134 35.5 241t97 176t144 105.5t178.5 36.5q229 0 330 -180v151h366v-1429h-366zM635 256q102 0 158.5 70t56.5 204v17q0 134 -54.5 205t-156.5 71
q-211 0 -211 -278v-17q0 -133 55 -202.5t152 -69.5z" />
    <glyph glyph-name="r" unicode="r" horiz-adv-x="876" 
d="M109 0v1071h366v-213q51 119 135.5 174t210.5 53v-342q-171 5 -258.5 -52t-87.5 -183v-508h-366z" />
    <glyph glyph-name="s" unicode="s" horiz-adv-x="1054" 
d="M528 -25q-230 0 -357.5 94t-133.5 271h338q10 -62 43 -91.5t108 -29.5q66 0 98.5 23.5t32.5 64.5q0 38 -44 59.5t-154 36.5q-220 28 -314 104.5t-94 240.5q0 115 64 196t165.5 118.5t229.5 37.5q210 0 332.5 -81.5t140.5 -264.5h-332q-11 55 -43 80.5t-94 25.5
q-58 0 -89.5 -23t-31.5 -61t40 -57t140 -31q234 -29 337.5 -104t103.5 -240q0 -185 -128 -277t-358 -92z" />
    <glyph glyph-name="t" unicode="t" horiz-adv-x="796" 
d="M535 -25q-377 0 -377 369v477h-129v250h129v223h366v-223h211v-250h-211v-442q0 -113 109 -113q52 0 104 19v-279q-121 -31 -202 -31z" />
    <glyph glyph-name="u" unicode="u" horiz-adv-x="1275" 
d="M461 -25q-162 0 -261.5 101.5t-99.5 296.5v698h367v-639q0 -91 36.5 -135.5t114.5 -44.5q86 0 134.5 51.5t48.5 151.5v616h366v-1071h-366v166q-98 -191 -340 -191z" />
    <glyph glyph-name="v" unicode="v" horiz-adv-x="1214" 
d="M410 0l-394 1071h392l223 -690l219 690h350l-391 -1071h-399z" />
    <glyph glyph-name="w" unicode="w" horiz-adv-x="1730" 
d="M342 0l-324 1071h383l156 -641l180 641h295l160 -641l174 641h348l-340 -1071h-350l-160 598l-166 -598h-356z" />
    <glyph glyph-name="x" unicode="x" 
d="M23 0l356 545l-334 526h422l166 -283l162 283h376l-337 -498l370 -573h-422l-190 319l-195 -319h-374z" />
    <glyph glyph-name="y" unicode="y" horiz-adv-x="1206" 
d="M266 -358l178 467l-428 962h398l221 -571l205 571h350l-574 -1429h-350z" />
    <glyph glyph-name="z" unicode="z" horiz-adv-x="1040" 
d="M20 0v37l469 758h-419v276h944v-39l-482 -756h457v-276h-969z" />
    <glyph glyph-name="braceleft" unicode="{" horiz-adv-x="856" 
d="M778 -303q-314 0 -451 115t-96 358l31 174q13 77 -36.5 125.5t-162.5 48.5v256q113 0 162.5 48t36.5 124l-31 172q-40 251 94.5 362t452.5 111v-266q-119 -6 -158 -47.5t-26 -149.5l27 -206q13 -104 -42.5 -175.5t-168.5 -97.5q113 -26 168.5 -98t42.5 -176l-27 -207
q-14 -111 26 -155t158 -48v-268z" />
    <glyph glyph-name="bar" unicode="|" horiz-adv-x="548" 
d="M145 -303v1892h256v-1892h-256z" />
    <glyph glyph-name="braceright" unicode="}" horiz-adv-x="856" 
d="M78 -303v268q118 4 158 48t26 155l-26 207q-13 104 42 176t168 98q-113 26 -168 97.5t-42 175.5l26 206q13 108 -26 149.5t-158 47.5v266q318 0 452.5 -111t94.5 -362l-31 -172q-13 -76 36.5 -124t162.5 -48v-256q-113 0 -162.5 -48.5t-36.5 -125.5l31 -174
q41 -243 -96 -358t-451 -115z" />
    <glyph glyph-name="asciitilde" unicode="~" horiz-adv-x="1060" 
d="M57 438q6 106 32.5 186.5t69 127t93 69.5t108.5 23q63 0 126 -22.5t111.5 -45t76.5 -22.5q79 0 92 94h238q-7 -194 -94 -300t-205 -106q-66 0 -129 22.5t-111 45t-76 22.5q-78 0 -94 -94h-238z" />
    <glyph glyph-name="uni00A0" unicode="&#xa0;" horiz-adv-x="403" 
 />
    <glyph glyph-name="exclamdown" unicode="&#xa1;" horiz-adv-x="684" 
d="M135 -240l55 983h304l55 -983h-414zM342 840q-91 0 -155 59.5t-64 144.5t64 144t155 59t154 -59t63 -144t-63 -144.5t-154 -59.5z" />
    <glyph glyph-name="cent" unicode="&#xa2;" horiz-adv-x="1218" 
d="M563 -276v256q-230 21 -371 161t-141 381v17q0 235 143.5 382t368.5 173v194h160v-192q124 -12 220 -60.5t159.5 -145t73.5 -231.5h-336q-15 123 -117 160v-581q125 38 137 184h322q-9 -187 -129.5 -304.5t-329.5 -137.5v-256h-160zM414 526q0 -229 149 -284v575
q-71 -25 -110 -94.5t-39 -179.5v-17z" />
    <glyph glyph-name="sterling" unicode="&#xa3;" horiz-adv-x="1345" 
d="M70 588v246h104q-24 94 -24 182q0 146 75 254t201.5 161.5t286.5 53.5q274 0 412 -130.5t149 -363.5h-383q-12 92 -51.5 135t-112.5 43q-74 0 -118 -47.5t-44 -128.5q0 -60 15 -159h362v-246h-321q8 -74 8 -115q0 -56 -21 -121q19 -5 51 -15t50.5 -15.5t42.5 -10t43 -4.5
q120 0 129 121h376q-8 -199 -118 -322.5t-305 -123.5q-89 0 -175.5 26.5t-152 53t-103.5 26.5q-45 0 -70 -24.5t-30 -63.5h-309q8 125 63 222t154 138q16 50 16 113q0 53 -16 115h-184z" />
    <glyph glyph-name="yen" unicode="&#xa5;" horiz-adv-x="1323" 
d="M131 602v146h283l-391 716h454l213 -477l211 477h399l-372 -716h286v-146h-331v-104h331v-148h-331v-350h-420v350h-332v148h332v104h-332z" />
    <glyph glyph-name="brokenbar" unicode="&#xa6;" horiz-adv-x="552" 
d="M145 -303v919h256v-919h-256zM145 762v827h256v-827h-256z" />
    <glyph glyph-name="section" unicode="&#xa7;" horiz-adv-x="1241" 
d="M598 -281q-211 0 -329 99.5t-126 275.5h334q10 -127 129 -127q59 0 89 25t30 69q0 46 -45.5 71.5t-173.5 55.5q-113 28 -191 58.5t-142.5 76.5t-96 112.5t-31.5 154.5q0 101 58.5 171.5t162.5 108.5q-92 92 -92 238q0 172 131 274.5t338 102.5q210 0 326.5 -99.5
t124.5 -275.5h-332q-6 61 -35.5 92t-91.5 31q-58 0 -87.5 -25.5t-29.5 -68.5q0 -50 41 -73.5t172 -55.5q75 -18 130.5 -35.5t112 -41.5t94.5 -53.5t69 -68t46 -89t15 -112.5q0 -98 -58.5 -169.5t-162.5 -112.5q90 -90 90 -236q0 -167 -130 -270t-339 -103zM754 459
q90 19 90 96q0 17 -4 30.5t-18 25.5t-24.5 19.5t-41 19t-49.5 17.5t-66 21l-152 49q-44 -7 -67 -32t-23 -64q0 -44 44.5 -69.5t160.5 -61.5z" />
    <glyph glyph-name="dieresis" unicode="&#xa8;" horiz-adv-x="819" 
d="M190 1188q-72 0 -123 50t-51 120q0 71 51 121.5t123 50.5q73 0 125 -50.5t52 -121.5t-52 -120.5t-125 -49.5zM627 1188q-73 0 -123.5 49.5t-50.5 120.5t50.5 121.5t123.5 50.5t124.5 -50.5t51.5 -121.5t-51.5 -120.5t-124.5 -49.5z" />
    <glyph glyph-name="copyright" unicode="&#xa9;" horiz-adv-x="1726" 
d="M877 309q-214 0 -324.5 111t-110.5 305v16q0 186 120 300t306 114q169 0 271 -79.5t114 -241.5h-262q-12 120 -123 120q-74 0 -114.5 -54t-40.5 -159v-14q0 -105 40.5 -160t118.5 -55q58 0 96 31.5t44 93.5h252q-9 -157 -114.5 -242.5t-272.5 -85.5zM860 63q135 0 256 49
t211 136t142.5 213.5t52.5 273.5q0 193 -88 346.5t-237.5 236.5t-332.5 83q-184 0 -334.5 -84t-237.5 -237.5t-87 -348.5q0 -147 52.5 -273t141.5 -212t208.5 -134.5t252.5 -48.5zM860 -41q-160 0 -305 59.5t-250 161.5t-167 246t-62 305q0 159 61.5 302.5t167 247
t251.5 164t308 60.5q132 0 253 -38.5t217 -109t168 -165t110.5 -212.5t38.5 -245q0 -216 -105 -394.5t-286.5 -280t-399.5 -101.5z" />
    <glyph glyph-name="ordfeminine" unicode="&#xaa;" horiz-adv-x="989" 
d="M344 588q-80 0 -143 25.5t-104.5 85.5t-41.5 147q0 145 111.5 207.5t339.5 62.5h82v31q0 55 -22 82.5t-77 27.5q-47 0 -71 -25.5t-29 -64.5h-303q10 151 121.5 232.5t298.5 81.5q194 0 297.5 -80t103.5 -244v-547h-313v97q-77 -119 -250 -119zM463 805q55 0 90 27.5
t35 74.5v47h-74q-141 0 -141 -80q0 -69 90 -69z" />
    <glyph glyph-name="guillemotleft" unicode="&#xab;" horiz-adv-x="983" 
d="M317 143l-254 392l254 391h236l-244 -391l244 -392h-236zM686 143l-254 392l254 391h236l-244 -391l244 -392h-236z" />
    <glyph glyph-name="registered" unicode="&#xae;" horiz-adv-x="1058" 
d="M354 811v449h185q186 0 186 -146v-2q0 -85 -76 -119l103 -182h-148l-82 154h-24v-154h-144zM498 1057h30q58 0 58 47v2q0 45 -58 45h-30v-94zM528 653q163 0 272 106.5t109 270.5q0 165 -107.5 271t-273.5 106t-272 -106.5t-106 -272.5q0 -165 108 -270t270 -105z
M528 575q-196 0 -332.5 130.5t-136.5 322.5q0 191 136.5 324t332.5 133q199 0 335 -132t136 -323q0 -193 -137 -324t-334 -131z" />
    <glyph glyph-name="macron" unicode="&#xaf;" horiz-adv-x="819" 
d="M94 1253v205h629v-205h-629z" />
    <glyph glyph-name="degree" unicode="&#xb0;" horiz-adv-x="927" 
d="M465 924q81 0 133.5 58.5t52.5 145.5q0 91 -52.5 151t-133.5 60q-83 0 -137 -60t-54 -151q0 -87 54 -145.5t137 -58.5zM465 780q-150 0 -256.5 103t-106.5 245q0 147 106.5 251t256.5 104q149 0 254.5 -104.5t105.5 -250.5q0 -142 -106 -245t-254 -103z" />
    <glyph glyph-name="plusminus" unicode="&#xb1;" horiz-adv-x="1167" 
d="M436 360v338h-360v269h360v336h295v-336h361v-269h-361v-338h-295zM76 0v242h1020v-242h-1020z" />
    <glyph glyph-name="twosuperior" unicode="&#xb2;" horiz-adv-x="722" 
d="M10 694v35l262 272q75 76 107.5 121.5t32.5 87.5q0 66 -64 66q-70 0 -82 -107h-246q4 149 94 227.5t246 78.5q155 0 236.5 -68.5t81.5 -177.5q0 -73 -40.5 -137t-117.5 -134l-71 -69h231v-195h-670z" />
    <glyph glyph-name="threesuperior" unicode="&#xb3;" horiz-adv-x="765" 
d="M381 680q-330 0 -344 274h237q11 -86 93 -86q38 0 58.5 18.5t20.5 51.5q0 70 -92 70h-61v151h61q92 0 92 70q0 27 -17.5 43t-51.5 16t-57 -20t-29 -58h-238q9 121 93 193t237 72q151 0 235 -56t84 -157q0 -127 -139 -166q70 -11 113 -55.5t43 -112.5q0 -114 -87 -181
t-251 -67z" />
    <glyph glyph-name="acute" unicode="&#xb4;" horiz-adv-x="819" 
d="M264 1194l109 340h368l-215 -340h-262z" />
    <glyph glyph-name="paragraph" unicode="&#xb6;" horiz-adv-x="1128" 
d="M524 -205v879h-16q-210 0 -330.5 98.5t-120.5 288.5q0 198 122.5 300.5t328.5 102.5h477v-1669h-156v1538h-151v-1538h-154z" />
    <glyph glyph-name="periodcentered" unicode="&#xb7;" horiz-adv-x="612" 
d="M303 461q-90 0 -149.5 60t-59.5 147t59.5 146.5t149.5 59.5q92 0 153.5 -59.5t61.5 -146.5t-61.5 -147t-153.5 -60z" />
    <glyph glyph-name="cedilla" unicode="&#xb8;" horiz-adv-x="819" 
d="M418 -463q-111 0 -179 49.5t-81 141.5h172q15 -58 73 -58q30 0 48 17.5t18 44.5q0 28 -18 45.5t-50 17.5q-39 0 -65 -22l-80 77l98 150h148l-64 -92q96 10 162 -35.5t66 -140.5q0 -91 -67 -143t-181 -52z" />
    <glyph glyph-name="onesuperior" unicode="&#xb9;" horiz-adv-x="585" 
d="M209 694v508l-168 -94v219l209 137h233v-770h-274z" />
    <glyph glyph-name="ordmasculine" unicode="&#xba;" horiz-adv-x="1069" 
d="M537 827q143 0 143 203v12q0 201 -143 201q-71 0 -109.5 -49.5t-38.5 -146.5v-13q0 -207 148 -207zM535 588q-135 0 -241 49.5t-169.5 149t-63.5 235.5v12q0 204 135 325.5t341 121.5q204 0 337.5 -118.5t133.5 -318.5v-12q0 -205 -134.5 -324.5t-338.5 -119.5z" />
    <glyph glyph-name="guillemotright" unicode="&#xbb;" horiz-adv-x="983" 
d="M61 143l246 392l-246 391h236l256 -391l-256 -392h-236zM430 143l246 392l-246 391h236l256 -391l-256 -392h-236z" />
    <glyph glyph-name="onequarter" unicode="&#xbc;" horiz-adv-x="1628" 
d="M215 694v508l-168 -94v219l209 137h233v-770h-274zM135 0l1147 1464h193l-1147 -1464h-193zM1221 0v143h-383v101l319 526h326v-448h98v-179h-98v-143h-262zM1071 322h158v268z" />
    <glyph glyph-name="onehalf" unicode="&#xbd;" horiz-adv-x="1652" 
d="M109 0l1146 1464h193l-1147 -1464h-192zM215 694v508l-168 -94v219l209 137h233v-770h-274zM932 0v35l262 272q72 72 105.5 119t33.5 88q0 68 -63 68q-71 0 -82 -109h-246q4 150 94 228.5t246 78.5q155 0 236 -68.5t81 -176.5q0 -74 -39.5 -137t-117.5 -136l-72 -67h232
v-195h-670z" />
    <glyph glyph-name="threequarters" unicode="&#xbe;" horiz-adv-x="1691" 
d="M387 680q-330 0 -344 274h238q11 -86 92 -86q38 0 59 18.5t21 51.5q0 70 -93 70h-61v151h61q93 0 93 70q0 27 -18 43t-52 16t-57 -20t-29 -58h-238q9 121 93 193t237 72q151 0 235.5 -56t84.5 -157q0 -126 -140 -166q70 -11 113 -55.5t43 -112.5q0 -114 -87 -181
t-251 -67zM233 0l1147 1464h193l-1147 -1464h-193zM1280 0v143h-383v101l320 526h325v-448h98v-179h-98v-143h-262zM1130 322h158v268z" />
    <glyph glyph-name="questiondown" unicode="&#xbf;" horiz-adv-x="1138" 
d="M793 745v-38q0 -56 -16 -105.5t-50.5 -95.5t-60 -73t-72.5 -71t-69.5 -68t-44 -61t-21.5 -71q0 -123 125 -123q67 0 108.5 47.5t52.5 132.5h357q-7 -228 -156 -353.5t-389 -125.5q-237 0 -366.5 101.5t-129.5 285.5q0 92 39.5 164t110.5 143q22 22 74.5 70t77 73t51 64
t32.5 74v30h347zM621 1249q92 0 155.5 -58.5t63.5 -143.5q0 -86 -63.5 -145.5t-155.5 -59.5q-91 0 -155.5 59.5t-64.5 145.5q0 84 64.5 143t155.5 59z" />
    <glyph glyph-name="Agrave" unicode="&#xc0;" horiz-adv-x="1529" 
d="M27 0l469 1464h542l465 -1464h-444l-78 272h-485l-78 -272h-391zM639 1554l-205 299h381l100 -299h-276zM739 1124l-161 -563h321z" />
    <glyph glyph-name="Aacute" unicode="&#xc1;" horiz-adv-x="1529" 
d="M27 0l469 1464h542l465 -1464h-444l-78 272h-485l-78 -272h-391zM604 1554l105 299h383l-211 -299h-277zM739 1124l-161 -563h321z" />
    <glyph glyph-name="Acircumflex" unicode="&#xc2;" horiz-adv-x="1529" 
d="M27 0l469 1464h542l465 -1464h-444l-78 272h-485l-78 -272h-391zM377 1554l233 299h308l225 -299h-266l-121 101l-119 -101h-260zM739 1124l-161 -563h321z" />
    <glyph glyph-name="Atilde" unicode="&#xc3;" horiz-adv-x="1529" 
d="M27 0l469 1464h542l465 -1464h-444l-78 272h-485l-78 -272h-391zM893 1552q-50 0 -98 17.5t-85.5 35t-62.5 17.5q-24 0 -41 -19t-22 -49h-209q10 154 79.5 234t170.5 80q61 0 139.5 -34t107.5 -34q52 0 66 66h207q-10 -153 -81.5 -233.5t-170.5 -80.5zM739 1124
l-161 -563h321z" />
    <glyph glyph-name="Adieresis" unicode="&#xc4;" horiz-adv-x="1529" 
d="M27 0l469 1464h542l465 -1464h-444l-78 272h-485l-78 -272h-391zM987 1552q-73 0 -123.5 49.5t-50.5 120.5q0 72 50.5 122t123.5 50q74 0 125 -50t51 -122q0 -71 -51.5 -120.5t-124.5 -49.5zM530 1552q-72 0 -123 50t-51 120q0 72 51 122t123 50q74 0 125.5 -50
t51.5 -122q0 -71 -52 -120.5t-125 -49.5zM739 1124l-161 -563h321z" />
    <glyph glyph-name="Aring" unicode="&#xc5;" horiz-adv-x="1529" 
d="M27 0l469 1464h542l465 -1464h-444l-78 272h-485l-78 -272h-391zM760 1524q-101 0 -173.5 70t-72.5 167q0 98 72.5 168t173.5 70t173.5 -70t72.5 -168q0 -97 -72.5 -167t-173.5 -70zM739 1124l-161 -563h321zM760 1659q41 0 67.5 29t26.5 73q0 46 -26.5 75.5t-67.5 29.5
q-42 0 -68 -29.5t-26 -75.5q0 -45 26 -73.5t68 -28.5z" />
    <glyph glyph-name="AE" unicode="&#xc6;" horiz-adv-x="2052" 
d="M23 0l657 1464h1274v-323h-580v-252h457v-299h-457v-266h613v-324h-1033v299h-403l-129 -299h-399zM913 1141l-241 -559h282v559h-41z" />
    <glyph glyph-name="Ccedilla" unicode="&#xc7;" horiz-adv-x="1554" 
d="M776 -463q-111 0 -179 49.5t-81 141.5h172q15 -58 74 -58q30 0 47.5 17.5t17.5 44.5q0 28 -17.5 45.5t-49.5 17.5q-40 0 -66 -22l-80 77l86 134q-312 33 -473 228.5t-161 510.5v16q0 221 97.5 392.5t267 263.5t382.5 92q296 0 475 -140.5t205 -422.5h-432
q-25 231 -246 231q-143 0 -225 -108.5t-82 -305.5v-16q0 -198 81.5 -306t231.5 -108q114 0 186 61t87 179h417q-14 -184 -103 -314t-233.5 -195t-332.5 -67l-45 -67q95 10 161 -35.5t66 -140.5q0 -91 -67 -143t-181 -52z" />
    <glyph glyph-name="Egrave" unicode="&#xc8;" horiz-adv-x="1253" 
d="M541 1554l-205 299h381l100 -299h-276zM141 0v1464h1012v-323h-594v-252h473v-299h-473v-266h627v-324h-1045z" />
    <glyph glyph-name="Eacute" unicode="&#xc9;" horiz-adv-x="1253" 
d="M506 1554l104 299h383l-211 -299h-276zM141 0v1464h1012v-323h-594v-252h473v-299h-473v-266h627v-324h-1045z" />
    <glyph glyph-name="Ecircumflex" unicode="&#xca;" horiz-adv-x="1253" 
d="M279 1554l233 299h307l225 -299h-266l-121 101l-118 -101h-260zM141 0v1464h1012v-323h-594v-252h473v-299h-473v-266h627v-324h-1045z" />
    <glyph glyph-name="Edieresis" unicode="&#xcb;" horiz-adv-x="1253" 
d="M141 0v1464h1012v-323h-594v-252h473v-299h-473v-266h627v-324h-1045zM432 1552q-72 0 -123 50t-51 120q0 72 51 122t123 50q74 0 125 -50t51 -122q0 -71 -51.5 -120.5t-124.5 -49.5zM889 1552q-73 0 -123.5 49.5t-50.5 120.5q0 72 50.5 122t123.5 50q74 0 125 -50
t51 -122q0 -71 -51.5 -120.5t-124.5 -49.5z" />
    <glyph glyph-name="Igrave" unicode="&#xcc;" horiz-adv-x="720" 
d="M150 0v1464h423v-1464h-423zM240 1554l-205 299h381l100 -299h-276z" />
    <glyph glyph-name="Iacute" unicode="&#xcd;" horiz-adv-x="720" 
d="M150 0v1464h423v-1464h-423zM205 1554l104 299h383l-211 -299h-276z" />
    <glyph glyph-name="Icircumflex" unicode="&#xce;" horiz-adv-x="720" 
d="M150 0v1464h423v-1464h-423zM-23 1554l234 299h307l225 -299h-266l-121 101l-118 -101h-261z" />
    <glyph glyph-name="Idieresis" unicode="&#xcf;" horiz-adv-x="720" 
d="M150 0v1464h423v-1464h-423zM131 1552q-72 0 -123 50t-51 120q0 72 51 122t123 50q74 0 125 -50t51 -122q0 -71 -51.5 -120.5t-124.5 -49.5zM588 1552q-73 0 -123.5 49.5t-50.5 120.5q0 72 50.5 122t123.5 50q74 0 125 -50t51 -122q0 -71 -51.5 -120.5t-124.5 -49.5z" />
    <glyph glyph-name="Eth" unicode="&#xd0;" horiz-adv-x="1585" 
d="M59 594v283h121v587h531q387 0 585.5 -184.5t198.5 -529.5v-17q0 -347 -201 -540t-583 -193h-531v594h-121zM592 324h106q185 0 272 99t87 304v16q0 209 -86 303.5t-277 94.5h-102v-264h246v-283h-246v-270z" />
    <glyph glyph-name="Ntilde" unicode="&#xd1;" horiz-adv-x="1591" 
d="M965 1552q-50 0 -98 17.5t-85.5 35t-62.5 17.5q-24 0 -41.5 -19t-22.5 -49h-209q10 154 79.5 234t170.5 80q61 0 140 -34t108 -34q52 0 66 66h207q-10 -153 -81.5 -233.5t-170.5 -80.5zM141 0v1464h473l469 -825v825h367v-1464h-406l-534 920v-920h-369z" />
    <glyph glyph-name="Ograve" unicode="&#xd2;" horiz-adv-x="1677" 
d="M715 1554l-205 299h381l100 -299h-276zM840 305q156 0 246 113t90 309v16q0 194 -91 304t-247 110q-157 0 -246.5 -109t-89.5 -307v-16q0 -197 92 -308.5t246 -111.5zM831 -25q-175 0 -319.5 55t-242.5 153.5t-152 237t-54 302.5v16q0 164 59.5 304t163.5 236.5
t246.5 151t305.5 54.5q223 0 398.5 -88t276.5 -256t101 -391v-17q0 -339 -215 -548.5t-568 -209.5z" />
    <glyph glyph-name="Oacute" unicode="&#xd3;" horiz-adv-x="1677" 
d="M680 1554l104 299h383l-211 -299h-276zM840 305q156 0 246 113t90 309v16q0 194 -91 304t-247 110q-157 0 -246.5 -109t-89.5 -307v-16q0 -197 92 -308.5t246 -111.5zM831 -25q-175 0 -319.5 55t-242.5 153.5t-152 237t-54 302.5v16q0 164 59.5 304t163.5 236.5
t246.5 151t305.5 54.5q223 0 398.5 -88t276.5 -256t101 -391v-17q0 -339 -215 -548.5t-568 -209.5z" />
    <glyph glyph-name="Ocircumflex" unicode="&#xd4;" horiz-adv-x="1677" 
d="M453 1554l233 299h307l226 -299h-267l-121 101l-118 -101h-260zM840 305q156 0 246 113t90 309v16q0 194 -91 304t-247 110q-157 0 -246.5 -109t-89.5 -307v-16q0 -197 92 -308.5t246 -111.5zM831 -25q-175 0 -319.5 55t-242.5 153.5t-152 237t-54 302.5v16
q0 164 59.5 304t163.5 236.5t246.5 151t305.5 54.5q223 0 398.5 -88t276.5 -256t101 -391v-17q0 -339 -215 -548.5t-568 -209.5z" />
    <glyph glyph-name="Otilde" unicode="&#xd5;" horiz-adv-x="1677" 
d="M969 1552q-50 0 -98 17.5t-85.5 35t-62.5 17.5q-24 0 -41.5 -19t-22.5 -49h-208q10 154 79 234t170 80q61 0 140 -34t108 -34q52 0 66 66h207q-10 -153 -81.5 -233.5t-170.5 -80.5zM840 305q156 0 246 113t90 309v16q0 194 -91 304t-247 110q-157 0 -246.5 -109
t-89.5 -307v-16q0 -197 92 -308.5t246 -111.5zM831 -25q-175 0 -319.5 55t-242.5 153.5t-152 237t-54 302.5v16q0 164 59.5 304t163.5 236.5t246.5 151t305.5 54.5q223 0 398.5 -88t276.5 -256t101 -391v-17q0 -339 -215 -548.5t-568 -209.5z" />
    <glyph glyph-name="Odieresis" unicode="&#xd6;" horiz-adv-x="1677" 
d="M606 1552q-72 0 -123 50t-51 120q0 72 51 122t123 50q74 0 125 -50t51 -122q0 -71 -51.5 -120.5t-124.5 -49.5zM1063 1552q-73 0 -123.5 49.5t-50.5 120.5q0 72 50.5 122t123.5 50q74 0 125 -50t51 -122q0 -71 -51.5 -120.5t-124.5 -49.5zM840 305q156 0 246 113t90 309
v16q0 194 -91 304t-247 110q-157 0 -246.5 -109t-89.5 -307v-16q0 -197 92 -308.5t246 -111.5zM831 -25q-175 0 -319.5 55t-242.5 153.5t-152 237t-54 302.5v16q0 164 59.5 304t163.5 236.5t246.5 151t305.5 54.5q223 0 398.5 -88t276.5 -256t101 -391v-17
q0 -339 -215 -548.5t-568 -209.5z" />
    <glyph glyph-name="multiply" unicode="&#xd7;" horiz-adv-x="1169" 
d="M272 184l-192 193l311 311l-317 316l194 196l316 -319l313 313l193 -195l-314 -311l318 -315l-195 -195l-315 318z" />
    <glyph glyph-name="Oslash" unicode="&#xd8;" horiz-adv-x="1677" 
d="M186 -66l-120 119l163 174q-166 199 -166 496v16q0 164 59.5 304t163.5 236.5t246.5 151t305.5 54.5q268 0 465 -127l149 158l121 -119l-141 -150q182 -195 182 -497v-17q0 -339 -215 -548.5t-568 -209.5q-281 0 -477 138zM840 305q157 0 248.5 113t91.5 309v16
q0 109 -33 203l-533 -559q88 -82 226 -82zM498 725q0 -111 26 -188l523 553q-82 67 -209 67q-158 0 -249 -109t-91 -307v-16z" />
    <glyph glyph-name="Ugrave" unicode="&#xd9;" horiz-adv-x="1564" 
d="M657 1554l-204 299h381l100 -299h-277zM780 -25q-313 0 -481 157t-168 462v870h420v-852q0 -162 50 -234.5t179 -72.5q128 0 179 72.5t51 240.5v846h424v-864q0 -312 -172 -468.5t-482 -156.5z" />
    <glyph glyph-name="Uacute" unicode="&#xda;" horiz-adv-x="1564" 
d="M623 1554l104 299h383l-211 -299h-276zM780 -25q-313 0 -481 157t-168 462v870h420v-852q0 -162 50 -234.5t179 -72.5q128 0 179 72.5t51 240.5v846h424v-864q0 -312 -172 -468.5t-482 -156.5z" />
    <glyph glyph-name="Ucircumflex" unicode="&#xdb;" horiz-adv-x="1564" 
d="M395 1554l234 299h307l225 -299h-266l-121 101l-119 -101h-260zM780 -25q-313 0 -481 157t-168 462v870h420v-852q0 -162 50 -234.5t179 -72.5q128 0 179 72.5t51 240.5v846h424v-864q0 -312 -172 -468.5t-482 -156.5z" />
    <glyph glyph-name="Udieresis" unicode="&#xdc;" horiz-adv-x="1564" 
d="M780 -25q-313 0 -481 157t-168 462v870h420v-852q0 -162 50 -234.5t179 -72.5q128 0 179 72.5t51 240.5v846h424v-864q0 -312 -172 -468.5t-482 -156.5zM549 1552q-72 0 -123 50t-51 120q0 72 51 122t123 50q74 0 125 -50t51 -122q0 -71 -51.5 -120.5t-124.5 -49.5z
M1006 1552q-73 0 -124 49.5t-51 120.5q0 72 51 122t124 50q74 0 125 -50t51 -122q0 -71 -51.5 -120.5t-124.5 -49.5z" />
    <glyph glyph-name="Yacute" unicode="&#xdd;" horiz-adv-x="1386" 
d="M494 0v627l-478 837h457l248 -493l248 493h401l-455 -837v-627h-421zM551 1554l104 299h383l-211 -299h-276z" />
    <glyph glyph-name="Thorn" unicode="&#xde;" horiz-adv-x="1335" 
d="M141 0v1464h418v-239h139q299 0 443.5 -117t144.5 -354v-9q0 -228 -148 -348.5t-421 -120.5h-158v-276h-418zM559 563h121q207 0 207 180v9q0 92 -51.5 133t-153.5 41h-123v-363z" />
    <glyph glyph-name="germandbls" unicode="&#xdf;" horiz-adv-x="1302" 
d="M780 -20q-110 0 -196 22v277q59 -19 100 -19q87 0 142 54.5t55 183.5v12q0 131 -74.5 185.5t-210.5 56.5v272q96 0 145.5 47t49.5 113v6q0 70 -40 108.5t-114 38.5t-118 -51t-44 -141v-1145h-366v1114q0 120 43.5 211.5t120 145.5t174 81t212.5 27q224 0 352 -96
t128 -279v-4q0 -103 -67.5 -180.5t-176.5 -110.5q75 -17 138 -51t113 -85t78.5 -125t28.5 -163v-14q0 -240 -130 -365.5t-343 -125.5z" />
    <glyph glyph-name="agrave" unicode="&#xe0;" horiz-adv-x="1183" 
d="M410 -25q-75 0 -138.5 19t-115 56.5t-80.5 101t-29 145.5q0 183 146 266.5t423 83.5h103v25q0 85 -29.5 127.5t-111.5 42.5q-131 0 -146 -127h-344q12 189 149 287t363 98q230 0 356.5 -99.5t126.5 -306.5v-694h-356v125q-98 -150 -317 -150zM537 223q79 0 130.5 42
t51.5 110v65h-96q-113 0 -163 -26t-50 -90q0 -47 32 -74t95 -27zM475 1194l-215 340h369l108 -340h-262z" />
    <glyph glyph-name="aacute" unicode="&#xe1;" horiz-adv-x="1183" 
d="M410 -25q-75 0 -138.5 19t-115 56.5t-80.5 101t-29 145.5q0 183 146 266.5t423 83.5h103v25q0 85 -29.5 127.5t-111.5 42.5q-131 0 -146 -127h-344q12 189 149 287t363 98q230 0 356.5 -99.5t126.5 -306.5v-694h-356v125q-98 -150 -317 -150zM537 223q79 0 130.5 42
t51.5 110v65h-96q-113 0 -163 -26t-50 -90q0 -47 32 -74t95 -27zM455 1194l108 340h369l-215 -340h-262z" />
    <glyph glyph-name="acircumflex" unicode="&#xe2;" horiz-adv-x="1183" 
d="M410 -25q-75 0 -138.5 19t-115 56.5t-80.5 101t-29 145.5q0 183 146 266.5t423 83.5h103v25q0 85 -29.5 127.5t-111.5 42.5q-131 0 -146 -127h-344q12 189 149 287t363 98q230 0 356.5 -99.5t126.5 -306.5v-694h-356v125q-98 -150 -317 -150zM537 223q79 0 130.5 42
t51.5 110v65h-96q-113 0 -163 -26t-50 -90q0 -47 32 -74t95 -27zM209 1198l252 334h262l242 -334h-256l-125 115l-123 -115h-252z" />
    <glyph glyph-name="atilde" unicode="&#xe3;" horiz-adv-x="1183" 
d="M410 -25q-75 0 -138.5 19t-115 56.5t-80.5 101t-29 145.5q0 183 146 266.5t423 83.5h103v25q0 85 -29.5 127.5t-111.5 42.5q-131 0 -146 -127h-344q12 189 149 287t363 98q230 0 356.5 -99.5t126.5 -306.5v-694h-356v125q-98 -150 -317 -150zM537 223q79 0 130.5 42
t51.5 110v65h-96q-113 0 -163 -26t-50 -90q0 -47 32 -74t95 -27zM727 1202q-49 0 -95.5 17t-83 34t-61.5 17q-24 0 -41 -18t-22 -48h-199q10 157 73.5 238.5t162.5 81.5q61 0 138 -35t106 -35q51 0 65 66h199q-12 -154 -78.5 -236t-163.5 -82z" />
    <glyph glyph-name="adieresis" unicode="&#xe4;" horiz-adv-x="1183" 
d="M410 -25q-75 0 -138.5 19t-115 56.5t-80.5 101t-29 145.5q0 183 146 266.5t423 83.5h103v25q0 85 -29.5 127.5t-111.5 42.5q-131 0 -146 -127h-344q12 189 149 287t363 98q230 0 356.5 -99.5t126.5 -306.5v-694h-356v125q-98 -150 -317 -150zM537 223q79 0 130.5 42
t51.5 110v65h-96q-113 0 -163 -26t-50 -90q0 -47 32 -74t95 -27zM377 1188q-72 0 -123 50t-51 120q0 71 51 121.5t123 50.5q73 0 124.5 -50.5t51.5 -121.5t-51.5 -120.5t-124.5 -49.5zM813 1188q-73 0 -123.5 49.5t-50.5 120.5t50.5 121.5t123.5 50.5t124.5 -50.5
t51.5 -121.5t-51.5 -120.5t-124.5 -49.5z" />
    <glyph glyph-name="aring" unicode="&#xe5;" horiz-adv-x="1183" 
d="M410 -25q-75 0 -138.5 19t-115 56.5t-80.5 101t-29 145.5q0 183 146 266.5t423 83.5h103v25q0 85 -29.5 127.5t-111.5 42.5q-131 0 -146 -127h-344q12 189 149 287t363 98q230 0 356.5 -99.5t126.5 -306.5v-694h-356v125q-98 -150 -317 -150zM537 223q79 0 130.5 42
t51.5 110v65h-96q-113 0 -163 -26t-50 -90q0 -47 32 -74t95 -27zM596 1315q41 0 67.5 29t26.5 73t-26.5 73.5t-67.5 29.5t-67.5 -29.5t-26.5 -73.5t26.5 -73t67.5 -29zM596 1184q-100 0 -171 68t-71 165t71 166.5t171 69.5t171 -69.5t71 -166.5t-71 -165t-171 -68z" />
    <glyph glyph-name="ae" unicode="&#xe6;" horiz-adv-x="1859" 
d="M1284 -25q-288 0 -416 187q-69 -92 -171 -139.5t-253 -47.5q-175 0 -286 80.5t-111 241.5q0 356 567 356h109v19q0 85 -31 127.5t-112 42.5q-131 0 -148 -127h-344q12 188 147.5 286.5t350.5 98.5q246 0 346 -127q133 127 342 127q111 0 206 -32.5t170 -98t117.5 -173.5
t42.5 -249v-94h-737q8 -109 62.5 -167.5t150.5 -58.5q157 0 182 127h342q-25 -183 -159.5 -281t-366.5 -98zM1075 653h381q-12 205 -182 205q-83 0 -136 -54t-63 -151zM539 223q84 0 134 41.5t50 110.5v71h-102q-110 0 -160.5 -24.5t-50.5 -89.5q0 -109 129 -109z" />
    <glyph glyph-name="ccedilla" unicode="&#xe7;" horiz-adv-x="1193" 
d="M575 -463q-111 0 -179 49.5t-81 141.5h172q15 -58 74 -58q30 0 48 17.5t18 44.5q0 28 -18 45.5t-50 17.5q-39 0 -65 -22l-80 77l88 134q-204 30 -327.5 169t-123.5 369v17q0 173 78 302t206.5 194t287.5 65q103 0 190.5 -24t161.5 -74t119.5 -137.5t52.5 -205.5h-344
q-12 77 -53.5 116.5t-118.5 39.5q-98 0 -151.5 -69.5t-53.5 -202.5v-17q0 -282 211 -282q78 0 127.5 46t58.5 132h330q-8 -202 -138.5 -321t-371.5 -126l-47 -67q95 10 161 -35.5t66 -140.5q0 -91 -67 -143t-181 -52z" />
    <glyph glyph-name="egrave" unicode="&#xe8;" horiz-adv-x="1224" 
d="M633 -25q-259 0 -420.5 145.5t-161.5 401.5v17q0 168 77.5 297t209 196.5t293.5 67.5q113 0 209.5 -33t172.5 -98.5t119.5 -173.5t43.5 -248v-96h-754q8 -106 66.5 -165t156.5 -59q161 0 186 127h345q-25 -183 -163.5 -281t-379.5 -98zM426 657h393q-5 98 -52.5 149.5
t-135.5 51.5q-84 0 -138 -52.5t-67 -148.5zM500 1194l-215 340h368l109 -340h-262z" />
    <glyph glyph-name="eacute" unicode="&#xe9;" horiz-adv-x="1224" 
d="M479 1194l109 340h368l-215 -340h-262zM633 -25q-259 0 -420.5 145.5t-161.5 401.5v17q0 168 77.5 297t209 196.5t293.5 67.5q113 0 209.5 -33t172.5 -98.5t119.5 -173.5t43.5 -248v-96h-754q8 -106 66.5 -165t156.5 -59q161 0 186 127h345q-25 -183 -163.5 -281
t-379.5 -98zM426 657h393q-5 98 -52.5 149.5t-135.5 51.5q-84 0 -138 -52.5t-67 -148.5z" />
    <glyph glyph-name="ecircumflex" unicode="&#xea;" horiz-adv-x="1224" 
d="M242 1198l252 334h262l241 -334h-256l-125 115l-122 -115h-252zM633 -25q-259 0 -420.5 145.5t-161.5 401.5v17q0 168 77.5 297t209 196.5t293.5 67.5q113 0 209.5 -33t172.5 -98.5t119.5 -173.5t43.5 -248v-96h-754q8 -106 66.5 -165t156.5 -59q161 0 186 127h345
q-25 -183 -163.5 -281t-379.5 -98zM426 657h393q-5 98 -52.5 149.5t-135.5 51.5q-84 0 -138 -52.5t-67 -148.5z" />
    <glyph glyph-name="edieresis" unicode="&#xeb;" horiz-adv-x="1224" 
d="M401 1188q-72 0 -123 50t-51 120q0 71 51 121.5t123 50.5q73 0 125 -50.5t52 -121.5t-52 -120.5t-125 -49.5zM838 1188q-73 0 -123.5 49.5t-50.5 120.5t50.5 121.5t123.5 50.5t124.5 -50.5t51.5 -121.5t-51.5 -120.5t-124.5 -49.5zM633 -25q-259 0 -420.5 145.5
t-161.5 401.5v17q0 168 77.5 297t209 196.5t293.5 67.5q113 0 209.5 -33t172.5 -98.5t119.5 -173.5t43.5 -248v-96h-754q8 -106 66.5 -165t156.5 -59q161 0 186 127h345q-25 -183 -163.5 -281t-379.5 -98zM426 657h393q-5 98 -52.5 149.5t-135.5 51.5q-84 0 -138 -52.5
t-67 -148.5z" />
    <glyph glyph-name="igrave" unicode="&#xec;" horiz-adv-x="604" 
d="M119 0v1071h366v-1071h-366zM182 1194l-215 340h369l108 -340h-262z" />
    <glyph glyph-name="iacute" unicode="&#xed;" horiz-adv-x="604" 
d="M162 1194l108 340h369l-215 -340h-262zM119 0v1071h366v-1071h-366z" />
    <glyph glyph-name="icircumflex" unicode="&#xee;" horiz-adv-x="604" 
d="M-76 1198l252 334h262l242 -334h-256l-125 115l-123 -115h-252zM119 0v1071h366v-1071h-366z" />
    <glyph glyph-name="idieresis" unicode="&#xef;" horiz-adv-x="604" 
d="M86 1188q-72 0 -123 50t-51 120q0 71 51 121.5t123 50.5q73 0 124.5 -50.5t51.5 -121.5t-51.5 -120.5t-124.5 -49.5zM516 1188q-72 0 -123 50t-51 120q0 71 51 121.5t123 50.5q73 0 124.5 -50.5t51.5 -121.5t-51.5 -120.5t-124.5 -49.5zM119 0v1071h366v-1071h-366z" />
    <glyph glyph-name="eth" unicode="&#xf0;" horiz-adv-x="1275" 
d="M289 1139l-49 127l223 82q-102 89 -246 194h406q93 -60 129 -86l217 80l49 -129l-144 -53q72 -67 131 -142t110 -166t79.5 -199t28.5 -222v-45q0 -279 -162 -442t-430 -163q-166 0 -296.5 66t-207 195t-76.5 303v22q0 119 41 219.5t108.5 165.5t153 101t176.5 36
q77 0 125.5 -20t96.5 -70q-56 121 -179 250zM639 248q102 0 156.5 73t54.5 207v17q0 136 -53.5 208t-157.5 72q-102 0 -157.5 -71t-55.5 -205v-17q0 -139 54 -211.5t159 -72.5z" />
    <glyph glyph-name="ntilde" unicode="&#xf1;" horiz-adv-x="1277" 
d="M109 0v1071h366v-172q46 90 136 145.5t216 55.5q161 0 256 -102.5t95 -301.5v-696h-367v623q0 91 -37.5 135.5t-116.5 44.5q-84 0 -133 -51.5t-49 -151.5v-600h-366zM772 1202q-49 0 -95.5 17t-83 34t-61.5 17q-24 0 -41 -18t-22 -48h-199q10 157 73.5 238.5t162.5 81.5
q61 0 138 -35t106 -35q51 0 65 66h199q-12 -154 -78.5 -236t-163.5 -82z" />
    <glyph glyph-name="ograve" unicode="&#xf2;" horiz-adv-x="1273" 
d="M639 248q102 0 156.5 73t54.5 207v17q0 136 -53.5 208t-157.5 72q-103 0 -158 -70.5t-55 -205.5v-17q0 -139 54 -211.5t159 -72.5zM637 -25q-166 0 -298 63.5t-210 189t-78 294.5v17q0 168 78 297t211 196.5t299 67.5q165 0 297 -66t209.5 -192.5t77.5 -292.5v-17
q0 -128 -45 -233.5t-124 -176t-186 -109t-231 -38.5zM516 1194l-215 340h369l108 -340h-262z" />
    <glyph glyph-name="oacute" unicode="&#xf3;" horiz-adv-x="1273" 
d="M496 1194l108 340h369l-215 -340h-262zM639 248q102 0 156.5 73t54.5 207v17q0 136 -53.5 208t-157.5 72q-103 0 -158 -70.5t-55 -205.5v-17q0 -139 54 -211.5t159 -72.5zM637 -25q-166 0 -298 63.5t-210 189t-78 294.5v17q0 168 78 297t211 196.5t299 67.5
q165 0 297 -66t209.5 -192.5t77.5 -292.5v-17q0 -128 -45 -233.5t-124 -176t-186 -109t-231 -38.5z" />
    <glyph glyph-name="ocircumflex" unicode="&#xf4;" horiz-adv-x="1273" 
d="M258 1198l252 334h262l242 -334h-256l-125 115l-123 -115h-252zM639 248q102 0 156.5 73t54.5 207v17q0 136 -53.5 208t-157.5 72q-103 0 -158 -70.5t-55 -205.5v-17q0 -139 54 -211.5t159 -72.5zM637 -25q-166 0 -298 63.5t-210 189t-78 294.5v17q0 168 78 297
t211 196.5t299 67.5q165 0 297 -66t209.5 -192.5t77.5 -292.5v-17q0 -128 -45 -233.5t-124 -176t-186 -109t-231 -38.5z" />
    <glyph glyph-name="otilde" unicode="&#xf5;" horiz-adv-x="1273" 
d="M639 248q102 0 156.5 73t54.5 207v17q0 136 -53.5 208t-157.5 72q-103 0 -158 -70.5t-55 -205.5v-17q0 -139 54 -211.5t159 -72.5zM637 -25q-166 0 -298 63.5t-210 189t-78 294.5v17q0 168 78 297t211 196.5t299 67.5q165 0 297 -66t209.5 -192.5t77.5 -292.5v-17
q0 -128 -45 -233.5t-124 -176t-186 -109t-231 -38.5zM768 1202q-49 0 -95.5 17t-83 34t-61.5 17q-24 0 -41 -18t-22 -48h-199q10 157 73.5 238.5t162.5 81.5q61 0 137.5 -35t105.5 -35q52 0 66 66h199q-12 -154 -78.5 -236t-163.5 -82z" />
    <glyph glyph-name="odieresis" unicode="&#xf6;" horiz-adv-x="1273" 
d="M418 1188q-72 0 -123 50t-51 120q0 71 51 121.5t123 50.5q73 0 124.5 -50.5t51.5 -121.5t-51.5 -120.5t-124.5 -49.5zM854 1188q-73 0 -123.5 49.5t-50.5 120.5t50.5 121.5t123.5 50.5t124.5 -50.5t51.5 -121.5t-51.5 -120.5t-124.5 -49.5zM639 248q102 0 156.5 73
t54.5 207v17q0 136 -53.5 208t-157.5 72q-103 0 -158 -70.5t-55 -205.5v-17q0 -139 54 -211.5t159 -72.5zM637 -25q-166 0 -298 63.5t-210 189t-78 294.5v17q0 168 78 297t211 196.5t299 67.5q165 0 297 -66t209.5 -192.5t77.5 -292.5v-17q0 -128 -45 -233.5t-124 -176
t-186 -109t-231 -38.5z" />
    <glyph glyph-name="divide" unicode="&#xf7;" horiz-adv-x="1171" 
d="M586 88q-80 0 -136.5 54.5t-56.5 133.5q0 78 57 134.5t136 56.5t135.5 -56.5t56.5 -134.5q0 -79 -56 -133.5t-136 -54.5zM76 569v254h1020v-254h-1020zM586 926q-79 0 -136 56t-57 134q0 79 56.5 134t136.5 55t136 -55t56 -134q0 -78 -56.5 -134t-135.5 -56z" />
    <glyph glyph-name="oslash" unicode="&#xf8;" horiz-adv-x="1273" 
d="M150 -80l-107 98l135 144q-127 143 -127 360v17q0 168 78 297t211 196.5t299 67.5q189 0 334 -88l133 141l106 -98l-127 -135q138 -151 138 -371v-17q0 -128 -45 -233.5t-124 -176t-186 -109t-231 -38.5q-197 0 -348 93zM639 246q105 0 160 73t55 209v17q0 63 -12 112
l-342 -364q53 -47 139 -47zM422 532q0 -61 8 -100l334 356q-48 39 -125 39q-105 0 -161 -71t-56 -207v-17z" />
    <glyph glyph-name="ugrave" unicode="&#xf9;" horiz-adv-x="1275" 
d="M461 -25q-162 0 -261.5 101.5t-99.5 296.5v698h367v-639q0 -91 36.5 -135.5t114.5 -44.5q86 0 134.5 51.5t48.5 151.5v616h366v-1071h-366v166q-98 -191 -340 -191zM514 1194l-215 340h369l108 -340h-262z" />
    <glyph glyph-name="uacute" unicode="&#xfa;" horiz-adv-x="1275" 
d="M494 1194l108 340h369l-215 -340h-262zM461 -25q-162 0 -261.5 101.5t-99.5 296.5v698h367v-639q0 -91 36.5 -135.5t114.5 -44.5q86 0 134.5 51.5t48.5 151.5v616h366v-1071h-366v166q-98 -191 -340 -191z" />
    <glyph glyph-name="ucircumflex" unicode="&#xfb;" horiz-adv-x="1275" 
d="M256 1198l252 334h262l242 -334h-256l-125 115l-123 -115h-252zM461 -25q-162 0 -261.5 101.5t-99.5 296.5v698h367v-639q0 -91 36.5 -135.5t114.5 -44.5q86 0 134.5 51.5t48.5 151.5v616h366v-1071h-366v166q-98 -191 -340 -191z" />
    <glyph glyph-name="udieresis" unicode="&#xfc;" horiz-adv-x="1275" 
d="M416 1188q-72 0 -123 50t-51 120q0 71 51 121.5t123 50.5q73 0 124.5 -50.5t51.5 -121.5t-51.5 -120.5t-124.5 -49.5zM852 1188q-73 0 -123.5 49.5t-50.5 120.5t50.5 121.5t123.5 50.5t124.5 -50.5t51.5 -121.5t-51.5 -120.5t-124.5 -49.5zM461 -25q-162 0 -261.5 101.5
t-99.5 296.5v698h367v-639q0 -91 36.5 -135.5t114.5 -44.5q86 0 134.5 51.5t48.5 151.5v616h366v-1071h-366v166q-98 -191 -340 -191z" />
    <glyph glyph-name="yacute" unicode="&#xfd;" horiz-adv-x="1206" 
d="M266 -358l178 467l-428 962h398l221 -571l205 571h350l-574 -1429h-350zM483 1194l109 340h369l-216 -340h-262z" />
    <glyph glyph-name="thorn" unicode="&#xfe;" horiz-adv-x="1316" 
d="M109 -358v1900h366v-631q50 84 135 136.5t199 52.5q95 0 176.5 -35.5t143.5 -103.5t97.5 -175t35.5 -241v-17q0 -135 -35.5 -241.5t-98 -174t-144 -102.5t-177.5 -35q-118 0 -204.5 50t-127.5 133v-516h-366zM678 256q103 0 157 70t54 202v17q0 138 -56 208t-155 70
q-101 0 -157 -71t-56 -205v-17q0 -135 56 -204.5t157 -69.5z" />
    <glyph glyph-name="ydieresis" unicode="&#xff;" horiz-adv-x="1206" 
d="M266 -358l178 467l-428 962h398l221 -571l205 571h350l-574 -1429h-350zM406 1188q-72 0 -123.5 50t-51.5 120q0 71 51.5 121.5t123.5 50.5q73 0 124.5 -50.5t51.5 -121.5t-51.5 -120.5t-124.5 -49.5zM842 1188q-73 0 -123.5 49.5t-50.5 120.5t50.5 121.5t123.5 50.5
t124.5 -50.5t51.5 -121.5t-51.5 -120.5t-124.5 -49.5z" />
    <glyph glyph-name="Amacron" unicode="&#x100;" horiz-adv-x="1529" 
d="M27 0l469 1464h542l465 -1464h-444l-78 272h-485l-78 -272h-391zM430 1579v219h660v-219h-660zM739 1124l-161 -563h321z" />
    <glyph glyph-name="amacron" unicode="&#x101;" horiz-adv-x="1183" 
d="M410 -25q-75 0 -138.5 19t-115 56.5t-80.5 101t-29 145.5q0 183 146 266.5t423 83.5h103v25q0 85 -29.5 127.5t-111.5 42.5q-131 0 -146 -127h-344q12 189 149 287t363 98q230 0 356.5 -99.5t126.5 -306.5v-694h-356v125q-98 -150 -317 -150zM537 223q79 0 130.5 42
t51.5 110v65h-96q-113 0 -163 -26t-50 -90q0 -47 32 -74t95 -27zM281 1253v205h628v-205h-628z" />
    <glyph glyph-name="Abreve" unicode="&#x102;" horiz-adv-x="1529" 
d="M27 0l469 1464h542l465 -1464h-444l-78 272h-485l-78 -272h-391zM758 1540q-150 0 -239.5 83t-98.5 230h237q5 -43 31 -68.5t70 -25.5t72 25.5t34 68.5h236q-12 -146 -103.5 -229.5t-238.5 -83.5zM739 1124l-161 -563h321z" />
    <glyph glyph-name="abreve" unicode="&#x103;" horiz-adv-x="1183" 
d="M410 -25q-75 0 -138.5 19t-115 56.5t-80.5 101t-29 145.5q0 183 146 266.5t423 83.5h103v25q0 85 -29.5 127.5t-111.5 42.5q-131 0 -146 -127h-344q12 189 149 287t363 98q230 0 356.5 -99.5t126.5 -306.5v-694h-356v125q-98 -150 -317 -150zM537 223q79 0 130.5 42
t51.5 110v65h-96q-113 0 -163 -26t-50 -90q0 -47 32 -74t95 -27zM594 1202q-148 0 -237.5 85t-96.5 239h227q10 -99 107 -99q48 0 77 27t34 72h227q-9 -153 -101 -238.5t-237 -85.5z" />
    <glyph glyph-name="Aogonek" unicode="&#x104;" horiz-adv-x="1529" 
d="M1303 -373q-117 0 -184.5 45t-67.5 121q0 120 174 207h-166l-78 272h-485l-78 -272h-391l469 1464h542l455 -1435q-60 -36 -92.5 -76.5t-32.5 -75.5q0 -53 59 -53q32 0 62 10v-174q-76 -33 -186 -33zM739 1124l-161 -563h321z" />
    <glyph glyph-name="aogonek" unicode="&#x105;" horiz-adv-x="1183" 
d="M907 -373q-109 0 -173 44t-64 120q0 127 176 209h-119v125q-98 -150 -317 -150q-75 0 -138.5 19t-115 56.5t-80.5 101t-29 145.5q0 183 146 266.5t423 83.5h103v25q0 85 -29.5 127.5t-111.5 42.5q-131 0 -146 -127h-344q12 189 149 287t363 98q230 0 356.5 -99.5
t126.5 -306.5v-671q-114 -80 -114 -152q0 -57 61 -57q32 0 62 10v-164q-76 -33 -185 -33zM537 223q79 0 130.5 42t51.5 110v65h-96q-113 0 -163 -26t-50 -90q0 -47 32 -74t95 -27z" />
    <glyph glyph-name="Cacute" unicode="&#x106;" horiz-adv-x="1554" 
d="M829 -25q-189 0 -335 53.5t-239 152.5t-141 235.5t-48 306.5v16q0 221 97.5 392.5t267 263.5t382.5 92q296 0 475 -140.5t205 -422.5h-432q-25 231 -246 231q-143 0 -225 -108.5t-82 -305.5v-16q0 -198 81.5 -306t231.5 -108q114 0 186 61t87 179h417q-14 -186 -105 -317
t-238.5 -195t-338.5 -64zM653 1554l105 299h383l-211 -299h-277z" />
    <glyph glyph-name="cacute" unicode="&#x107;" horiz-adv-x="1193" 
d="M471 1194l109 340h368l-215 -340h-262zM614 -25q-162 0 -287.5 60.5t-200.5 186t-75 300.5v17q0 173 78 302t206.5 194t287.5 65q103 0 190.5 -24t161.5 -74t119.5 -137.5t52.5 -205.5h-344q-12 77 -53.5 116.5t-118.5 39.5q-98 0 -151.5 -69.5t-53.5 -202.5v-17
q0 -282 211 -282q78 0 127.5 46t58.5 132h330q-8 -207 -146.5 -327t-392.5 -120z" />
    <glyph glyph-name="Ccircumflex" unicode="&#x108;" horiz-adv-x="1554" 
d="M426 1554l233 299h308l225 -299h-266l-121 101l-119 -101h-260zM829 -25q-189 0 -335 53.5t-239 152.5t-141 235.5t-48 306.5v16q0 221 97.5 392.5t267 263.5t382.5 92q296 0 475 -140.5t205 -422.5h-432q-25 231 -246 231q-143 0 -225 -108.5t-82 -305.5v-16
q0 -198 81.5 -306t231.5 -108q114 0 186 61t87 179h417q-14 -186 -105 -317t-238.5 -195t-338.5 -64z" />
    <glyph glyph-name="ccircumflex" unicode="&#x109;" horiz-adv-x="1193" 
d="M233 1198l252 334h263l241 -334h-256l-125 115l-123 -115h-252zM614 -25q-162 0 -287.5 60.5t-200.5 186t-75 300.5v17q0 173 78 302t206.5 194t287.5 65q103 0 190.5 -24t161.5 -74t119.5 -137.5t52.5 -205.5h-344q-12 77 -53.5 116.5t-118.5 39.5q-98 0 -151.5 -69.5
t-53.5 -202.5v-17q0 -282 211 -282q78 0 127.5 46t58.5 132h330q-8 -207 -146.5 -327t-392.5 -120z" />
    <glyph glyph-name="Cdotaccent" unicode="&#x10a;" horiz-adv-x="1554" 
d="M829 -25q-189 0 -335 53.5t-239 152.5t-141 235.5t-48 306.5v16q0 221 97.5 392.5t267 263.5t382.5 92q296 0 475 -140.5t205 -422.5h-432q-25 231 -246 231q-143 0 -225 -108.5t-82 -305.5v-16q0 -198 81.5 -306t231.5 -108q114 0 186 61t87 179h417q-14 -186 -105 -317
t-238.5 -195t-338.5 -64zM807 1550q-83 0 -139 53t-56 132q0 78 56 130t139 52t138.5 -52t55.5 -130q0 -79 -55.5 -132t-138.5 -53z" />
    <glyph glyph-name="cdotaccent" unicode="&#x10b;" horiz-adv-x="1193" 
d="M614 -25q-162 0 -287.5 60.5t-200.5 186t-75 300.5v17q0 173 78 302t206.5 194t287.5 65q103 0 190.5 -24t161.5 -74t119.5 -137.5t52.5 -205.5h-344q-12 77 -53.5 116.5t-118.5 39.5q-98 0 -151.5 -69.5t-53.5 -202.5v-17q0 -282 211 -282q78 0 127.5 46t58.5 132h330
q-8 -207 -146.5 -327t-392.5 -120zM618 1186q-85 0 -140.5 52t-55.5 132q0 78 55.5 130t140.5 52q83 0 139 -52t56 -130q0 -79 -56 -131.5t-139 -52.5z" />
    <glyph glyph-name="Ccaron" unicode="&#x10c;" horiz-adv-x="1554" 
d="M649 1554l-225 299h266l119 -100l121 100h260l-234 -299h-307zM829 -25q-189 0 -335 53.5t-239 152.5t-141 235.5t-48 306.5v16q0 221 97.5 392.5t267 263.5t382.5 92q296 0 475 -140.5t205 -422.5h-432q-25 231 -246 231q-143 0 -225 -108.5t-82 -305.5v-16
q0 -198 81.5 -306t231.5 -108q114 0 186 61t87 179h417q-14 -186 -105 -317t-238.5 -195t-338.5 -64z" />
    <glyph glyph-name="ccaron" unicode="&#x10d;" horiz-adv-x="1193" 
d="M477 1198l-244 334h256l125 -115l125 115h250l-252 -334h-260zM614 -25q-162 0 -287.5 60.5t-200.5 186t-75 300.5v17q0 173 78 302t206.5 194t287.5 65q103 0 190.5 -24t161.5 -74t119.5 -137.5t52.5 -205.5h-344q-12 77 -53.5 116.5t-118.5 39.5q-98 0 -151.5 -69.5
t-53.5 -202.5v-17q0 -282 211 -282q78 0 127.5 46t58.5 132h330q-8 -207 -146.5 -327t-392.5 -120z" />
    <glyph glyph-name="Dcaron" unicode="&#x10e;" horiz-adv-x="1521" 
d="M530 1554l-225 299h266l119 -100l121 100h260l-233 -299h-308zM563 324h96q186 0 273.5 99t87.5 304v16q0 209 -87 303.5t-278 94.5h-92v-817zM141 0v1464h533q386 0 585 -184.5t199 -529.5v-17q0 -347 -202 -540t-584 -193h-531z" />
    <glyph glyph-name="dcaron" unicode="&#x10f;" horiz-adv-x="1314" 
d="M1280 1186l18 356h273l-101 -356h-190zM506 -25q-95 0 -175.5 34t-142.5 100.5t-97.5 173t-35.5 241.5v17q0 134 35.5 241t97 176t144 105.5t178.5 36.5q229 0 330 -180v622h366v-1542h-366v174q-42 -88 -129.5 -143.5t-204.5 -55.5zM635 256q102 0 158.5 70t56.5 204v17
q0 134 -54.5 205t-156.5 71q-211 0 -211 -278v-17q0 -133 55 -202.5t152 -69.5z" />
    <glyph glyph-name="Dcroat" unicode="&#x110;" horiz-adv-x="1585" 
d="M59 594v283h121v587h531q387 0 585.5 -184.5t198.5 -529.5v-17q0 -347 -201 -540t-583 -193h-531v594h-121zM592 324h106q185 0 272 99t87 304v16q0 209 -86 303.5t-277 94.5h-102v-264h246v-283h-246v-270z" />
    <glyph glyph-name="dcroat" unicode="&#x111;" horiz-adv-x="1314" 
d="M522 1202v197h318v143h366v-143h117v-197h-117v-1202h-366v174q-42 -88 -129.5 -143.5t-204.5 -55.5q-95 0 -175.5 34t-142.5 100.5t-97.5 173t-35.5 241.5v17q0 134 35.5 241t97 176t144 105.5t178.5 36.5q229 0 330 -180v282h-318zM635 256q102 0 158.5 70t56.5 204v17
q0 134 -54.5 205t-156.5 71q-211 0 -211 -278v-17q0 -133 55 -202.5t152 -69.5z" />
    <glyph glyph-name="Emacron" unicode="&#x112;" horiz-adv-x="1253" 
d="M141 0v1464h1012v-323h-594v-252h473v-299h-473v-266h627v-324h-1045zM332 1579v219h659v-219h-659z" />
    <glyph glyph-name="emacron" unicode="&#x113;" horiz-adv-x="1224" 
d="M633 -25q-259 0 -420.5 145.5t-161.5 401.5v17q0 168 77.5 297t209 196.5t293.5 67.5q113 0 209.5 -33t172.5 -98.5t119.5 -173.5t43.5 -248v-96h-754q8 -106 66.5 -165t156.5 -59q161 0 186 127h345q-25 -183 -163.5 -281t-379.5 -98zM426 657h393q-5 98 -52.5 149.5
t-135.5 51.5q-84 0 -138 -52.5t-67 -148.5zM305 1253v205h629v-205h-629z" />
    <glyph glyph-name="Ebreve" unicode="&#x114;" horiz-adv-x="1253" 
d="M141 0v1464h1012v-323h-594v-252h473v-299h-473v-266h627v-324h-1045zM659 1540q-150 0 -239 83t-98 230h237q5 -44 31 -69t69 -25q44 0 72.5 25.5t34.5 68.5h235q-12 -146 -103.5 -229.5t-238.5 -83.5z" />
    <glyph glyph-name="ebreve" unicode="&#x115;" horiz-adv-x="1224" 
d="M633 -25q-259 0 -420.5 145.5t-161.5 401.5v17q0 168 77.5 297t209 196.5t293.5 67.5q113 0 209.5 -33t172.5 -98.5t119.5 -173.5t43.5 -248v-96h-754q8 -106 66.5 -165t156.5 -59q161 0 186 127h345q-25 -183 -163.5 -281t-379.5 -98zM426 657h393q-5 98 -52.5 149.5
t-135.5 51.5q-84 0 -138 -52.5t-67 -148.5zM608 1202q-148 0 -237.5 85t-96.5 239h228q10 -99 106 -99q48 0 77 27t34 72h227q-9 -153 -101 -238.5t-237 -85.5z" />
    <glyph glyph-name="Edotaccent" unicode="&#x116;" horiz-adv-x="1253" 
d="M664 1550q-83 0 -139 53t-56 132q0 78 56 130t139 52t138.5 -52t55.5 -130q0 -79 -55.5 -132t-138.5 -53zM141 0v1464h1012v-323h-594v-252h473v-299h-473v-266h627v-324h-1045z" />
    <glyph glyph-name="edotaccent" unicode="&#x117;" horiz-adv-x="1224" 
d="M633 -25q-259 0 -420.5 145.5t-161.5 401.5v17q0 168 77.5 297t209 196.5t293.5 67.5q113 0 209.5 -33t172.5 -98.5t119.5 -173.5t43.5 -248v-96h-754q8 -106 66.5 -165t156.5 -59q161 0 186 127h345q-25 -183 -163.5 -281t-379.5 -98zM426 657h393q-5 98 -52.5 149.5
t-135.5 51.5q-84 0 -138 -52.5t-67 -148.5zM623 1186q-85 0 -141 52.5t-56 131.5q0 78 56 130t141 52q83 0 138.5 -52t55.5 -130q0 -79 -55.5 -131.5t-138.5 -52.5z" />
    <glyph glyph-name="Eogonek" unicode="&#x118;" horiz-adv-x="1253" 
d="M956 -373q-115 0 -182 45.5t-67 120.5q0 119 176 207h-742v1464h1012v-323h-594v-252h473v-299h-473v-266h627v-324h-78q-44 -36 -64 -63.5t-20 -59.5q0 -25 16 -39t45 -14q33 0 60 10v-174q-72 -33 -189 -33z" />
    <glyph glyph-name="eogonek" unicode="&#x119;" horiz-adv-x="1224" 
d="M829 -373q-110 0 -175.5 43t-65.5 119q0 58 46 105t122 90q-52 -9 -123 -9q-259 0 -420.5 145.5t-161.5 401.5v17q0 168 77.5 297t209 196.5t293.5 67.5q113 0 209.5 -33t172.5 -98.5t119.5 -173.5t43.5 -248v-96h-754q8 -106 66.5 -165t156.5 -59q161 0 186 127h345
q-12 -92 -51 -156t-95 -120q-77 -75 -111 -120t-34 -87q0 -57 63 -57q32 0 62 10v-164q-76 -33 -181 -33zM426 657h393q-5 98 -52.5 149.5t-135.5 51.5q-84 0 -138 -52.5t-67 -148.5z" />
    <glyph glyph-name="Ecaron" unicode="&#x11a;" horiz-adv-x="1253" 
d="M506 1554l-225 299h266l119 -100l120 100h261l-234 -299h-307zM141 0v1464h1012v-323h-594v-252h473v-299h-473v-266h627v-324h-1045z" />
    <glyph glyph-name="ecaron" unicode="&#x11b;" horiz-adv-x="1224" 
d="M485 1198l-243 334h256l125 -115l125 115h249l-252 -334h-260zM633 -25q-259 0 -420.5 145.5t-161.5 401.5v17q0 168 77.5 297t209 196.5t293.5 67.5q113 0 209.5 -33t172.5 -98.5t119.5 -173.5t43.5 -248v-96h-754q8 -106 66.5 -165t156.5 -59q161 0 186 127h345
q-25 -183 -163.5 -281t-379.5 -98zM426 657h393q-5 98 -52.5 149.5t-135.5 51.5q-84 0 -138 -52.5t-67 -148.5z" />
    <glyph glyph-name="Gcircumflex" unicode="&#x11c;" horiz-adv-x="1611" 
d="M831 -25q-183 0 -329.5 55t-242 154.5t-146 236.5t-50.5 302v16q0 164 58.5 304.5t160.5 237.5t244 151.5t305 54.5q106 0 201 -19t180 -61t148.5 -104t104 -153t48.5 -202h-415q-31 209 -264 209q-155 0 -243.5 -113t-88.5 -311v-16q0 -93 18 -167t57 -132.5
t106.5 -90.5t160.5 -32q144 0 214 62t77 159h-275v293h688v-180q0 -141 -46 -259.5t-134.5 -207t-226 -138t-310.5 -49.5zM442 1554l234 299h307l225 -299h-266l-121 101l-119 -101h-260z" />
    <glyph glyph-name="gcircumflex" unicode="&#x11d;" horiz-adv-x="1312" 
d="M246 1198l252 334h262l241 -334h-256l-124 115l-123 -115h-252zM610 -397q-514 0 -561 397h365q13 -65 58 -102t138 -37q117 0 172.5 60t55.5 165v164q-45 -84 -132 -140.5t-200 -56.5q-195 0 -325 137.5t-130 376.5v17q0 231 130.5 373.5t324.5 142.5q231 0 332 -180
v151h366v-981q0 -238 -153 -362.5t-441 -124.5zM635 324q98 0 155.5 65.5t57.5 179.5v15q0 112 -55.5 176.5t-155.5 64.5q-101 0 -156 -65.5t-55 -177.5v-17q0 -111 55.5 -176t153.5 -65z" />
    <glyph glyph-name="Gbreve" unicode="&#x11e;" horiz-adv-x="1611" 
d="M831 -25q-183 0 -329.5 55t-242 154.5t-146 236.5t-50.5 302v16q0 164 58.5 304.5t160.5 237.5t244 151.5t305 54.5q106 0 201 -19t180 -61t148.5 -104t104 -153t48.5 -202h-415q-31 209 -264 209q-155 0 -243.5 -113t-88.5 -311v-16q0 -93 18 -167t57 -132.5
t106.5 -90.5t160.5 -32q144 0 214 62t77 159h-275v293h688v-180q0 -141 -46 -259.5t-134.5 -207t-226 -138t-310.5 -49.5zM823 1540q-150 0 -239.5 83t-98.5 230h238q5 -44 31 -69t69 -25q44 0 72.5 25.5t34.5 68.5h235q-12 -146 -103.5 -229.5t-238.5 -83.5z" />
    <glyph glyph-name="gbreve" unicode="&#x11f;" horiz-adv-x="1312" 
d="M610 -397q-514 0 -561 397h365q13 -65 58 -102t138 -37q117 0 172.5 60t55.5 165v164q-45 -84 -132 -140.5t-200 -56.5q-195 0 -325 137.5t-130 376.5v17q0 231 130.5 373.5t324.5 142.5q231 0 332 -180v151h366v-981q0 -238 -153 -362.5t-441 -124.5zM635 324
q98 0 155.5 65.5t57.5 179.5v15q0 112 -55.5 176.5t-155.5 64.5q-101 0 -156 -65.5t-55 -177.5v-17q0 -111 55.5 -176t153.5 -65zM623 1202q-148 0 -237.5 85t-96.5 239h227q10 -99 107 -99q48 0 76.5 27t33.5 72h228q-9 -153 -101 -238.5t-237 -85.5z" />
    <glyph glyph-name="Gdotaccent" unicode="&#x120;" horiz-adv-x="1611" 
d="M831 -25q-183 0 -329.5 55t-242 154.5t-146 236.5t-50.5 302v16q0 164 58.5 304.5t160.5 237.5t244 151.5t305 54.5q106 0 201 -19t180 -61t148.5 -104t104 -153t48.5 -202h-415q-31 209 -264 209q-155 0 -243.5 -113t-88.5 -311v-16q0 -93 18 -167t57 -132.5
t106.5 -90.5t160.5 -32q144 0 214 62t77 159h-275v293h688v-180q0 -141 -46 -259.5t-134.5 -207t-226 -138t-310.5 -49.5zM827 1550q-83 0 -138.5 53t-55.5 132q0 78 55.5 130t138.5 52t139 -52t56 -130q0 -79 -56 -132t-139 -53z" />
    <glyph glyph-name="gdotaccent" unicode="&#x121;" horiz-adv-x="1312" 
d="M610 -397q-514 0 -561 397h365q13 -65 58 -102t138 -37q117 0 172.5 60t55.5 165v164q-45 -84 -132 -140.5t-200 -56.5q-195 0 -325 137.5t-130 376.5v17q0 231 130.5 373.5t324.5 142.5q231 0 332 -180v151h366v-981q0 -238 -153 -362.5t-441 -124.5zM635 324
q98 0 155.5 65.5t57.5 179.5v15q0 112 -55.5 176.5t-155.5 64.5q-101 0 -156 -65.5t-55 -177.5v-17q0 -111 55.5 -176t153.5 -65zM625 1186q-85 0 -141 52.5t-56 131.5q0 78 56 130t141 52q83 0 138.5 -52t55.5 -130q0 -79 -55.5 -131.5t-138.5 -52.5z" />
    <glyph glyph-name="Gcommaaccent" unicode="&#x122;" horiz-adv-x="1611" 
d="M831 -25q-183 0 -329.5 55t-242 154.5t-146 236.5t-50.5 302v16q0 164 58.5 304.5t160.5 237.5t244 151.5t305 54.5q106 0 201 -19t180 -61t148.5 -104t104 -153t48.5 -202h-415q-31 209 -264 209q-155 0 -243.5 -113t-88.5 -311v-16q0 -93 18 -167t57 -132.5
t106.5 -90.5t160.5 -32q144 0 214 62t77 159h-275v293h688v-180q0 -141 -46 -259.5t-134.5 -207t-226 -138t-310.5 -49.5zM795 -475l-207 55l86 363l323 -39z" />
    <glyph glyph-name="gcommaaccent" unicode="&#x123;" horiz-adv-x="1312" 
d="M795 1159l-324 39l203 379l207 -55zM610 -397q-514 0 -561 397h365q13 -65 58 -102t138 -37q117 0 172.5 60t55.5 165v164q-45 -84 -132 -140.5t-200 -56.5q-195 0 -325 137.5t-130 376.5v17q0 231 130.5 373.5t324.5 142.5q231 0 332 -180v151h366v-981
q0 -238 -153 -362.5t-441 -124.5zM635 324q98 0 155.5 65.5t57.5 179.5v15q0 112 -55.5 176.5t-155.5 64.5q-101 0 -156 -65.5t-55 -177.5v-17q0 -111 55.5 -176t153.5 -65z" />
    <glyph glyph-name="Hcircumflex" unicode="&#x124;" horiz-adv-x="1605" 
d="M141 0v1464h422v-559h481v559h420v-1464h-420v578h-481v-578h-422zM420 1554l233 299h308l225 -299h-266l-121 101l-119 -101h-260z" />
    <glyph glyph-name="hcircumflex" unicode="&#x125;" horiz-adv-x="1277" 
d="M109 0v1542h366v-643q46 90 136 145.5t216 55.5q161 0 256 -102.5t95 -301.5v-696h-367v623q0 91 -37.5 135.5t-116.5 44.5q-84 0 -133 -51.5t-49 -151.5v-600h-366zM266 1608l234 299h307l225 -299h-266l-121 100l-119 -100h-260z" />
    <glyph glyph-name="Hbar" unicode="&#x126;" horiz-adv-x="1605" 
d="M18 1067v197h123v200h422v-200h481v200h420v-200h123v-197h-123v-1067h-420v578h-481v-578h-422v1067h-123zM563 905h481v162h-481v-162z" />
    <glyph glyph-name="hbar" unicode="&#x127;" horiz-adv-x="1277" 
d="M-8 1202v197h117v143h366v-143h318v-197h-318v-303q46 90 136 145.5t216 55.5q161 0 256 -102.5t95 -301.5v-696h-367v623q0 91 -37.5 135.5t-116.5 44.5q-84 0 -133 -51.5t-49 -151.5v-600h-366v1202h-117z" />
    <glyph glyph-name="Itilde" unicode="&#x128;" horiz-adv-x="720" 
d="M150 0v1464h423v-1464h-423zM496 1552q-50 0 -98 17.5t-85.5 35t-62.5 17.5q-24 0 -41.5 -19t-22.5 -49h-209q10 154 79.5 234t170.5 80q61 0 140 -34t108 -34q52 0 66 66h207q-10 -153 -81.5 -233.5t-170.5 -80.5z" />
    <glyph glyph-name="itilde" unicode="&#x129;" horiz-adv-x="604" 
d="M119 0v1071h366v-1071h-366zM434 1202q-49 0 -95.5 17t-82.5 34t-61 17t-42 -18t-22 -48h-199q10 157 73.5 238.5t162.5 81.5q61 0 138 -35t106 -35q51 0 65 66h199q-12 -154 -78.5 -236t-163.5 -82z" />
    <glyph glyph-name="Imacron" unicode="&#x12a;" horiz-adv-x="720" 
d="M150 0v1464h423v-1464h-423zM31 1579v219h659v-219h-659z" />
    <glyph glyph-name="imacron" unicode="&#x12b;" horiz-adv-x="604" 
d="M51 1253v205h502v-205h-502zM119 0v1071h366v-1071h-366z" />
    <glyph glyph-name="Ibreve" unicode="&#x12c;" horiz-adv-x="720" 
d="M150 0v1464h423v-1464h-423zM360 1540q-150 0 -239 83t-98 230h237q5 -44 31 -69t69 -25q44 0 72.5 25.5t34.5 68.5h235q-12 -146 -103.5 -229.5t-238.5 -83.5z" />
    <glyph glyph-name="ibreve" unicode="&#x12d;" horiz-adv-x="604" 
d="M119 0v1071h366v-1071h-366zM301 1202q-148 0 -237.5 85t-96.5 239h228q10 -99 106 -99q48 0 77 27t34 72h227q-9 -153 -101 -238.5t-237 -85.5z" />
    <glyph glyph-name="Iogonek" unicode="&#x12e;" horiz-adv-x="720" 
d="M395 -373q-116 0 -184 45.5t-68 120.5q0 118 174 207h-167v1464h423v-1439q-112 -76 -112 -148q0 -25 16 -39t45 -14q33 0 60 10v-174q-76 -33 -187 -33z" />
    <glyph glyph-name="iogonek" unicode="&#x12f;" horiz-adv-x="604" 
d="M315 -373q-109 0 -173 45t-64 121q0 125 176 207h-135v1071h366v-1053q-110 -79 -110 -147q0 -57 63 -57q32 0 62 10v-164q-76 -33 -185 -33zM301 1174q-87 0 -144 53.5t-57 134.5q0 82 57.5 136t143.5 54q87 0 145 -54t58 -136q0 -81 -58 -134.5t-145 -53.5z" />
    <glyph glyph-name="Idotaccent" unicode="&#x130;" horiz-adv-x="720" 
d="M150 0v1464h423v-1464h-423zM362 1550q-83 0 -138.5 53t-55.5 132q0 78 55.5 130t138.5 52t139 -52t56 -130q0 -79 -56 -132t-139 -53z" />
    <glyph glyph-name="dotlessi" unicode="&#x131;" horiz-adv-x="604" 
d="M119 0v1071h366v-1071h-366z" />
    <glyph glyph-name="IJ" unicode="&#x132;" horiz-adv-x="1646" 
d="M150 0v1464h423v-1464h-423zM999 -18q-166 0 -266 49v313q89 -29 178 -29q92 0 141.5 47t49.5 156v946h422v-950q0 -263 -133 -397.5t-392 -134.5z" />
    <glyph glyph-name="ij" unicode="&#x133;" horiz-adv-x="1210" 
d="M119 0v1071h366v-1071h-366zM301 1174q-87 0 -144 53.5t-57 134.5q0 82 57.5 136t143.5 54q87 0 145 -54t58 -136q0 -81 -58 -134.5t-145 -53.5zM592 -377v266q68 5 99.5 35t31.5 92v1055h364v-1063q0 -91 -23.5 -158.5t-78.5 -120t-153 -79.5t-240 -27zM905 1174
q-86 0 -143 53t-57 135t57 136t143 54q87 0 145 -54t58 -136q0 -81 -58 -134.5t-145 -53.5z" />
    <glyph glyph-name="Jcircumflex" unicode="&#x134;" horiz-adv-x="978" 
d="M262 1554l234 299h307l225 -299h-266l-121 101l-119 -101h-260zM334 -18q-166 0 -266 49v313q89 -29 178 -29q92 0 141 47t49 156v946h422v-950q0 -263 -132.5 -397.5t-391.5 -134.5z" />
    <glyph glyph-name="jcircumflex" unicode="&#x135;" horiz-adv-x="604" 
d="M-12 -377v266q68 5 99.5 35t31.5 92v1055h364v-1063q0 -91 -23.5 -158.5t-78.5 -120t-153 -79.5t-240 -27zM-78 1198l252 334h262l242 -334h-256l-125 115l-123 -115h-252z" />
    <glyph glyph-name="Kcommaaccent" unicode="&#x136;" horiz-adv-x="1486" 
d="M141 0v1464h422v-579l441 579h438l-537 -680l565 -784h-485l-422 612v-612h-422zM733 -475l-207 55l86 363l324 -39z" />
    <glyph glyph-name="kcommaaccent" unicode="&#x137;" horiz-adv-x="1181" 
d="M109 0v1542h366v-895l289 424h381l-350 -481l379 -590h-410l-289 469v-469h-366zM586 -475l-207 55l86 363l323 -39z" />
    <glyph glyph-name="Lacute" unicode="&#x139;" horiz-adv-x="1177" 
d="M203 1554l104 299h383l-211 -299h-276zM141 0v1464h422v-1138h553v-326h-975z" />
    <glyph glyph-name="lacute" unicode="&#x13a;" horiz-adv-x="602" 
d="M152 1608l104 299h383l-211 -299h-276zM119 0v1542h364v-1542h-364z" />
    <glyph glyph-name="Lcommaaccent" unicode="&#x13b;" horiz-adv-x="1177" 
d="M592 -475l-207 55l86 363l324 -39zM141 0v1464h422v-1138h553v-326h-975z" />
    <glyph glyph-name="lcommaaccent" unicode="&#x13c;" horiz-adv-x="602" 
d="M272 -475l-206 55l86 363l323 -39zM119 0v1542h364v-1542h-364z" />
    <glyph glyph-name="Lcaron" unicode="&#x13d;" horiz-adv-x="1177" 
d="M705 1104l32 360h303l-125 -360h-210zM141 0v1464h422v-1138h553v-326h-975z" />
    <glyph glyph-name="lcaron" unicode="&#x13e;" horiz-adv-x="602" 
d="M557 1186l18 356h273l-100 -356h-191zM119 0v1542h364v-1542h-364z" />
    <glyph glyph-name="Ldot" unicode="&#x13f;" horiz-adv-x="1230" 
d="M141 0v1464h422v-1138h553v-326h-975zM971 612q-90 0 -149.5 60t-59.5 147t59.5 147t149.5 60q92 0 153.5 -60t61.5 -147t-61.5 -147t-153.5 -60z" />
    <glyph glyph-name="ldot" unicode="&#x140;" horiz-adv-x="931" 
d="M119 0v1542h364v-1542h-364zM762 528q-90 0 -149.5 60t-59.5 147t59.5 147t149.5 60q92 0 153.5 -60t61.5 -147t-61.5 -147t-153.5 -60z" />
    <glyph glyph-name="Lslash" unicode="&#x141;" horiz-adv-x="1214" 
d="M51 469v221l129 45v729h420v-583l369 129v-224l-369 -127v-333h555v-326h-975v514z" />
    <glyph glyph-name="lslash" unicode="&#x142;" horiz-adv-x="681" 
d="M35 535v235l125 59v713h364v-534l131 63v-237l-131 -64v-770h-364v594z" />
    <glyph glyph-name="Nacute" unicode="&#x143;" horiz-adv-x="1591" 
d="M676 1554l104 299h383l-211 -299h-276zM141 0v1464h473l469 -825v825h367v-1464h-406l-534 920v-920h-369z" />
    <glyph glyph-name="nacute" unicode="&#x144;" horiz-adv-x="1277" 
d="M500 1194l108 340h369l-215 -340h-262zM109 0v1071h366v-172q46 90 136 145.5t216 55.5q161 0 256 -102.5t95 -301.5v-696h-367v623q0 91 -37.5 135.5t-116.5 44.5q-84 0 -133 -51.5t-49 -151.5v-600h-366z" />
    <glyph glyph-name="Ncommaaccent" unicode="&#x145;" horiz-adv-x="1591" 
d="M756 -475l-207 55l86 363l323 -39zM141 0v1464h473l469 -825v825h367v-1464h-406l-534 920v-920h-369z" />
    <glyph glyph-name="ncommaaccent" unicode="&#x146;" horiz-adv-x="1277" 
d="M610 -475l-207 55l86 363l324 -39zM109 0v1071h366v-172q46 90 136 145.5t216 55.5q161 0 256 -102.5t95 -301.5v-696h-367v623q0 91 -37.5 135.5t-116.5 44.5q-84 0 -133 -51.5t-49 -151.5v-600h-366z" />
    <glyph glyph-name="Ncaron" unicode="&#x147;" horiz-adv-x="1591" 
d="M672 1554l-226 299h267l118 -100l121 100h260l-233 -299h-307zM141 0v1464h473l469 -825v825h367v-1464h-406l-534 920v-920h-369z" />
    <glyph glyph-name="ncaron" unicode="&#x148;" horiz-adv-x="1277" 
d="M506 1198l-244 334h256l125 -115l125 115h250l-252 -334h-260zM109 0v1071h366v-172q46 90 136 145.5t216 55.5q161 0 256 -102.5t95 -301.5v-696h-367v623q0 91 -37.5 135.5t-116.5 44.5q-84 0 -133 -51.5t-49 -151.5v-600h-366z" />
    <glyph glyph-name="napostrophe" unicode="&#x149;" horiz-adv-x="1521" 
d="M143 877l-206 79l163 535l324 -109zM350 0v1071h367v-172q46 90 136 145.5t216 55.5q161 0 255.5 -102.5t94.5 -301.5v-696h-366v623q0 91 -37.5 135.5t-116.5 44.5q-84 0 -133 -51.5t-49 -151.5v-600h-367z" />
    <glyph glyph-name="Eng" unicode="&#x14a;" horiz-adv-x="1591" 
d="M956 -393q-155 0 -251 47v297q85 -29 159 -29q68 0 112 28t54 83l-510 921v-954h-379v1464h480l452 -843v843h377v-1417q0 -204 -127 -322t-367 -118z" />
    <glyph glyph-name="eng" unicode="&#x14b;" horiz-adv-x="1277" 
d="M682 -377v266q68 5 98.5 34.5t30.5 92.5v607q0 91 -37.5 135.5t-116.5 44.5q-84 0 -133 -51.5t-49 -151.5v-600h-366v1071h366v-172q46 90 136 145.5t216 55.5q161 0 256 -102.5t95 -301.5v-688q0 -91 -23.5 -158.5t-78.5 -120t-153.5 -79.5t-240.5 -27z" />
    <glyph glyph-name="Omacron" unicode="&#x14c;" horiz-adv-x="1677" 
d="M506 1579v219h659v-219h-659zM840 305q156 0 246 113t90 309v16q0 194 -91 304t-247 110q-157 0 -246.5 -109t-89.5 -307v-16q0 -197 92 -308.5t246 -111.5zM831 -25q-175 0 -319.5 55t-242.5 153.5t-152 237t-54 302.5v16q0 164 59.5 304t163.5 236.5t246.5 151
t305.5 54.5q223 0 398.5 -88t276.5 -256t101 -391v-17q0 -339 -215 -548.5t-568 -209.5z" />
    <glyph glyph-name="omacron" unicode="&#x14d;" horiz-adv-x="1273" 
d="M322 1253v205h628v-205h-628zM639 248q102 0 156.5 73t54.5 207v17q0 136 -53.5 208t-157.5 72q-103 0 -158 -70.5t-55 -205.5v-17q0 -139 54 -211.5t159 -72.5zM637 -25q-166 0 -298 63.5t-210 189t-78 294.5v17q0 168 78 297t211 196.5t299 67.5q165 0 297 -66
t209.5 -192.5t77.5 -292.5v-17q0 -128 -45 -233.5t-124 -176t-186 -109t-231 -38.5z" />
    <glyph glyph-name="Obreve" unicode="&#x14e;" horiz-adv-x="1677" 
d="M834 1540q-150 0 -239.5 83t-98.5 230h237q5 -43 31 -68.5t70 -25.5t72 25.5t34 68.5h236q-12 -146 -103.5 -229.5t-238.5 -83.5zM840 305q156 0 246 113t90 309v16q0 194 -91 304t-247 110q-157 0 -246.5 -109t-89.5 -307v-16q0 -197 92 -308.5t246 -111.5zM831 -25
q-175 0 -319.5 55t-242.5 153.5t-152 237t-54 302.5v16q0 164 59.5 304t163.5 236.5t246.5 151t305.5 54.5q223 0 398.5 -88t276.5 -256t101 -391v-17q0 -339 -215 -548.5t-568 -209.5z" />
    <glyph glyph-name="obreve" unicode="&#x14f;" horiz-adv-x="1273" 
d="M639 248q102 0 156.5 73t54.5 207v17q0 136 -53.5 208t-157.5 72q-103 0 -158 -70.5t-55 -205.5v-17q0 -139 54 -211.5t159 -72.5zM637 -25q-166 0 -298 63.5t-210 189t-78 294.5v17q0 168 78 297t211 196.5t299 67.5q165 0 297 -66t209.5 -192.5t77.5 -292.5v-17
q0 -128 -45 -233.5t-124 -176t-186 -109t-231 -38.5zM635 1202q-148 0 -237.5 85t-96.5 239h227q10 -99 107 -99q48 0 76.5 27t33.5 72h228q-9 -153 -101 -238.5t-237 -85.5z" />
    <glyph glyph-name="Ohungarumlaut" unicode="&#x150;" horiz-adv-x="1677" 
d="M489 1554l84 299h314l-152 -299h-246zM887 1554l84 299h315l-153 -299h-246zM840 305q156 0 246 113t90 309v16q0 194 -91 304t-247 110q-157 0 -246.5 -109t-89.5 -307v-16q0 -197 92 -308.5t246 -111.5zM831 -25q-175 0 -319.5 55t-242.5 153.5t-152 237t-54 302.5v16
q0 164 59.5 304t163.5 236.5t246.5 151t305.5 54.5q223 0 398.5 -88t276.5 -256t101 -391v-17q0 -339 -215 -548.5t-568 -209.5z" />
    <glyph glyph-name="ohungarumlaut" unicode="&#x151;" horiz-adv-x="1273" 
d="M322 1194l90 340h286l-157 -340h-219zM686 1194l88 340h287l-158 -340h-217zM639 248q102 0 156.5 73t54.5 207v17q0 136 -53.5 208t-157.5 72q-103 0 -158 -70.5t-55 -205.5v-17q0 -139 54 -211.5t159 -72.5zM637 -25q-166 0 -298 63.5t-210 189t-78 294.5v17
q0 168 78 297t211 196.5t299 67.5q165 0 297 -66t209.5 -192.5t77.5 -292.5v-17q0 -128 -45 -233.5t-124 -176t-186 -109t-231 -38.5z" />
    <glyph glyph-name="OE" unicode="&#x152;" horiz-adv-x="2004" 
d="M63 731q0 347 202 540t581 193h1059v-323h-564v-252h443v-299h-443v-266h596v-324h-1091q-384 0 -583.5 185.5t-199.5 529.5v16zM926 1141h-66q-186 0 -272 -99t-86 -305v-16q0 -209 85.5 -303t274.5 -94h64v817z" />
    <glyph glyph-name="oe" unicode="&#x153;" horiz-adv-x="2017" 
d="M637 -25q-166 0 -298 63.5t-210 189t-78 294.5v17q0 168 78 297t211 196.5t299 67.5q246 0 395 -162q149 162 389 162q113 0 209.5 -33t172.5 -98.5t119.5 -173.5t43.5 -248v-96h-754q7 -106 66.5 -165t157.5 -59q161 0 186 127h344q-25 -183 -163.5 -281t-379.5 -98
q-255 0 -399 156q-144 -156 -389 -156zM639 248q102 0 156.5 73t54.5 207v17q0 136 -53.5 208t-157.5 72q-103 0 -158 -70.5t-55 -205.5v-17q0 -139 54 -211.5t159 -72.5zM1219 657h393q-5 98 -52.5 149.5t-136.5 51.5q-84 0 -137.5 -52.5t-66.5 -148.5z" />
    <glyph glyph-name="Racute" unicode="&#x154;" horiz-adv-x="1427" 
d="M535 1554l104 299h383l-211 -299h-276zM141 0v1464h574q290 0 443 -117.5t153 -347.5v-8q0 -284 -264 -385l350 -606h-443l-297 524h-98v-524h-418zM559 797h135q211 0 211 178v8q0 87 -52.5 126.5t-156.5 39.5h-137v-352z" />
    <glyph glyph-name="racute" unicode="&#x155;" horiz-adv-x="876" 
d="M338 1194l108 340h369l-215 -340h-262zM109 0v1071h366v-213q51 119 135.5 174t210.5 53v-342q-171 5 -258.5 -52t-87.5 -183v-508h-366z" />
    <glyph glyph-name="Rcommaaccent" unicode="&#x156;" horiz-adv-x="1427" 
d="M719 -475l-207 55l86 363l324 -39zM141 0v1464h574q290 0 443 -117.5t153 -347.5v-8q0 -284 -264 -385l350 -606h-443l-297 524h-98v-524h-418zM559 797h135q211 0 211 178v8q0 87 -52.5 126.5t-156.5 39.5h-137v-352z" />
    <glyph glyph-name="rcommaaccent" unicode="&#x157;" horiz-adv-x="876" 
d="M268 -475l-207 55l86 363l324 -39zM109 0v1071h366v-213q51 119 135.5 174t210.5 53v-342q-171 5 -258.5 -52t-87.5 -183v-508h-366z" />
    <glyph glyph-name="Rcaron" unicode="&#x158;" horiz-adv-x="1427" 
d="M530 1554l-225 299h266l119 -100l121 100h260l-233 -299h-308zM141 0v1464h574q290 0 443 -117.5t153 -347.5v-8q0 -284 -264 -385l350 -606h-443l-297 524h-98v-524h-418zM559 797h135q211 0 211 178v8q0 87 -52.5 126.5t-156.5 39.5h-137v-352z" />
    <glyph glyph-name="rcaron" unicode="&#x159;" horiz-adv-x="876" 
d="M344 1198l-244 334h256l125 -115l125 115h250l-252 -334h-260zM109 0v1071h366v-213q51 119 135.5 174t210.5 53v-342q-171 5 -258.5 -52t-87.5 -183v-508h-366z" />
    <glyph glyph-name="Sacute" unicode="&#x15a;" horiz-adv-x="1325" 
d="M678 -25q-305 0 -463.5 125t-167.5 365h399q9 -89 60 -140t172 -51q89 0 138.5 40t49.5 106t-47 93t-184 48q-209 25 -328.5 78.5t-172 146t-52.5 242.5q0 201 154 329t413 128q538 0 578 -457h-389q-21 158 -189 158q-83 0 -126.5 -34t-43.5 -91q0 -63 47 -94t181 -49
q117 -13 201.5 -32.5t155.5 -54t114 -83.5t66.5 -120t23.5 -165q0 -101 -40 -189.5t-113.5 -155t-186 -105t-250.5 -38.5zM502 1554l104 299h383l-211 -299h-276z" />
    <glyph glyph-name="sacute" unicode="&#x15b;" horiz-adv-x="1054" 
d="M383 1194l109 340h368l-215 -340h-262zM528 -25q-230 0 -357.5 94t-133.5 271h338q10 -62 43 -91.5t108 -29.5q66 0 98.5 23.5t32.5 64.5q0 38 -44 59.5t-154 36.5q-220 28 -314 104.5t-94 240.5q0 115 64 196t165.5 118.5t229.5 37.5q210 0 332.5 -81.5t140.5 -264.5
h-332q-11 55 -43 80.5t-94 25.5q-58 0 -89.5 -23t-31.5 -61t40 -57t140 -31q234 -29 337.5 -104t103.5 -240q0 -185 -128 -277t-358 -92z" />
    <glyph glyph-name="Scircumflex" unicode="&#x15c;" horiz-adv-x="1325" 
d="M274 1554l234 299h307l225 -299h-266l-121 101l-118 -101h-261zM678 -25q-305 0 -463.5 125t-167.5 365h399q9 -89 60 -140t172 -51q89 0 138.5 40t49.5 106t-47 93t-184 48q-209 25 -328.5 78.5t-172 146t-52.5 242.5q0 201 154 329t413 128q538 0 578 -457h-389
q-21 158 -189 158q-83 0 -126.5 -34t-43.5 -91q0 -63 47 -94t181 -49q117 -13 201.5 -32.5t155.5 -54t114 -83.5t66.5 -120t23.5 -165q0 -101 -40 -189.5t-113.5 -155t-186 -105t-250.5 -38.5z" />
    <glyph glyph-name="scircumflex" unicode="&#x15d;" horiz-adv-x="1054" 
d="M141 1198l252 334h262l242 -334h-256l-125 115l-123 -115h-252zM528 -25q-230 0 -357.5 94t-133.5 271h338q10 -62 43 -91.5t108 -29.5q66 0 98.5 23.5t32.5 64.5q0 38 -44 59.5t-154 36.5q-220 28 -314 104.5t-94 240.5q0 115 64 196t165.5 118.5t229.5 37.5
q210 0 332.5 -81.5t140.5 -264.5h-332q-11 55 -43 80.5t-94 25.5q-58 0 -89.5 -23t-31.5 -61t40 -57t140 -31q234 -29 337.5 -104t103.5 -240q0 -185 -128 -277t-358 -92z" />
    <glyph glyph-name="Scedilla" unicode="&#x15e;" horiz-adv-x="1325" 
d="M625 -463q-111 0 -179 49.5t-81 141.5h172q15 -58 73 -58q30 0 48 17.5t18 44.5q0 28 -18 45.5t-50 17.5q-39 0 -65 -22l-80 77l86 132q-243 25 -368.5 147t-133.5 336h399q9 -89 60 -140t172 -51q89 0 138.5 40t49.5 106t-47 93t-184 48q-209 25 -328.5 78.5t-172 146
t-52.5 242.5q0 201 154 329t413 128q538 0 578 -457h-389q-21 158 -189 158q-83 0 -126.5 -34t-43.5 -91q0 -63 47 -94t181 -49q117 -13 201.5 -32.5t155.5 -54t114 -83.5t66.5 -120t23.5 -165q0 -100 -39 -187.5t-111 -154t-182.5 -105.5t-245.5 -41l-45 -67
q95 10 161 -35.5t66 -140.5q0 -91 -66.5 -143t-180.5 -52z" />
    <glyph glyph-name="scedilla" unicode="&#x15f;" horiz-adv-x="1054" 
d="M492 -463q-111 0 -179.5 49.5t-81.5 141.5h172q15 -58 74 -58q30 0 48 17.5t18 44.5q0 28 -18 45.5t-50 17.5q-39 0 -65 -22l-80 77l86 132q-180 22 -277.5 113t-101.5 245h338q10 -62 43 -91.5t108 -29.5q66 0 98.5 23.5t32.5 64.5q0 38 -44 59.5t-154 36.5
q-220 28 -314 104.5t-94 240.5q0 115 64 196t165.5 118.5t229.5 37.5q210 0 332.5 -81.5t140.5 -264.5h-332q-11 55 -43 80.5t-94 25.5q-58 0 -89.5 -23t-31.5 -61t40 -57t140 -31q234 -29 337.5 -104t103.5 -240q0 -180 -119.5 -271.5t-335.5 -97.5l-47 -67
q95 10 161 -35.5t66 -140.5q0 -91 -66.5 -143t-180.5 -52z" />
    <glyph glyph-name="Scaron" unicode="&#x160;" horiz-adv-x="1325" 
d="M498 1554l-226 299h267l118 -100l121 100h260l-233 -299h-307zM678 -25q-305 0 -463.5 125t-167.5 365h399q9 -89 60 -140t172 -51q89 0 138.5 40t49.5 106t-47 93t-184 48q-209 25 -328.5 78.5t-172 146t-52.5 242.5q0 201 154 329t413 128q538 0 578 -457h-389
q-21 158 -189 158q-83 0 -126.5 -34t-43.5 -91q0 -63 47 -94t181 -49q117 -13 201.5 -32.5t155.5 -54t114 -83.5t66.5 -120t23.5 -165q0 -101 -40 -189.5t-113.5 -155t-186 -105t-250.5 -38.5z" />
    <glyph glyph-name="scaron" unicode="&#x161;" horiz-adv-x="1054" 
d="M379 1198l-244 334h256l125 -115l125 115h250l-252 -334h-260zM528 -25q-230 0 -357.5 94t-133.5 271h338q10 -62 43 -91.5t108 -29.5q66 0 98.5 23.5t32.5 64.5q0 38 -44 59.5t-154 36.5q-220 28 -314 104.5t-94 240.5q0 115 64 196t165.5 118.5t229.5 37.5
q210 0 332.5 -81.5t140.5 -264.5h-332q-11 55 -43 80.5t-94 25.5q-58 0 -89.5 -23t-31.5 -61t40 -57t140 -31q234 -29 337.5 -104t103.5 -240q0 -185 -128 -277t-358 -92z" />
    <glyph glyph-name="Tcommaaccent" unicode="&#x162;" horiz-adv-x="1265" 
d="M600 -475l-207 55l86 363l324 -39zM422 0v1141h-379v323h1180v-323h-379v-1141h-422z" />
    <glyph glyph-name="tcommaaccent" unicode="&#x163;" horiz-adv-x="796" 
d="M399 -475l-206 55l86 363l323 -39zM535 -25q-377 0 -377 369v477h-129v250h129v223h366v-223h211v-250h-211v-442q0 -113 109 -113q52 0 104 19v-279q-121 -31 -202 -31z" />
    <glyph glyph-name="Tcaron" unicode="&#x164;" horiz-adv-x="1265" 
d="M471 1554l-225 299h266l119 -100l121 100h260l-234 -299h-307zM422 0v1141h-379v323h1180v-323h-379v-1141h-422z" />
    <glyph glyph-name="tcaron" unicode="&#x165;" horiz-adv-x="796" 
d="M616 1186l19 356h272l-100 -356h-191zM535 -25q-377 0 -377 369v477h-129v250h129v223h366v-223h211v-250h-211v-442q0 -113 109 -113q52 0 104 19v-279q-121 -31 -202 -31z" />
    <glyph glyph-name="Tbar" unicode="&#x166;" horiz-adv-x="1265" 
d="M164 571v263h258v307h-379v323h1180v-323h-379v-307h258v-263h-258v-571h-422v571h-258z" />
    <glyph glyph-name="tbar" unicode="&#x167;" horiz-adv-x="796" 
d="M29 477v203h129v141h-129v250h129v223h366v-223h211v-250h-211v-141h211v-203h-211v-98q0 -113 109 -113q52 0 104 19v-279q-121 -31 -202 -31q-377 0 -377 369v133h-129z" />
    <glyph glyph-name="Utilde" unicode="&#x168;" horiz-adv-x="1564" 
d="M780 -25q-313 0 -481 157t-168 462v870h420v-852q0 -162 50 -234.5t179 -72.5q128 0 179 72.5t51 240.5v846h424v-864q0 -312 -172 -468.5t-482 -156.5zM911 1552q-50 0 -98 17.5t-85 35t-62 17.5q-24 0 -41.5 -19t-22.5 -49h-209q10 154 79.5 234t170.5 80q61 0 140 -34
t108 -34q51 0 65 66h207q-10 -153 -81.5 -233.5t-170.5 -80.5z" />
    <glyph glyph-name="utilde" unicode="&#x169;" horiz-adv-x="1275" 
d="M461 -25q-162 0 -261.5 101.5t-99.5 296.5v698h367v-639q0 -91 36.5 -135.5t114.5 -44.5q86 0 134.5 51.5t48.5 151.5v616h366v-1071h-366v166q-98 -191 -340 -191zM766 1202q-49 0 -95.5 17t-83 34t-61.5 17q-24 0 -41 -18t-22 -48h-199q10 157 73.5 238.5t162.5 81.5
q61 0 137.5 -35t105.5 -35q52 0 66 66h199q-12 -154 -78.5 -236t-163.5 -82z" />
    <glyph glyph-name="Umacron" unicode="&#x16a;" horiz-adv-x="1564" 
d="M780 -25q-313 0 -481 157t-168 462v870h420v-852q0 -162 50 -234.5t179 -72.5q128 0 179 72.5t51 240.5v846h424v-864q0 -312 -172 -468.5t-482 -156.5zM449 1579v219h659v-219h-659z" />
    <glyph glyph-name="umacron" unicode="&#x16b;" horiz-adv-x="1275" 
d="M461 -25q-162 0 -261.5 101.5t-99.5 296.5v698h367v-639q0 -91 36.5 -135.5t114.5 -44.5q86 0 134.5 51.5t48.5 151.5v616h366v-1071h-366v166q-98 -191 -340 -191zM319 1253v205h629v-205h-629z" />
    <glyph glyph-name="Ubreve" unicode="&#x16c;" horiz-adv-x="1564" 
d="M780 -25q-313 0 -481 157t-168 462v870h420v-852q0 -162 50 -234.5t179 -72.5q128 0 179 72.5t51 240.5v846h424v-864q0 -312 -172 -468.5t-482 -156.5zM776 1540q-150 0 -239.5 83t-98.5 230h238q5 -44 31 -69t69 -25q44 0 72.5 25.5t34.5 68.5h235
q-12 -146 -103.5 -229.5t-238.5 -83.5z" />
    <glyph glyph-name="ubreve" unicode="&#x16d;" horiz-adv-x="1275" 
d="M461 -25q-162 0 -261.5 101.5t-99.5 296.5v698h367v-639q0 -91 36.5 -135.5t114.5 -44.5q86 0 134.5 51.5t48.5 151.5v616h366v-1071h-366v166q-98 -191 -340 -191zM633 1202q-148 0 -237.5 85t-96.5 239h227q10 -99 107 -99q48 0 76.5 27t33.5 72h228
q-9 -153 -101 -238.5t-237 -85.5z" />
    <glyph glyph-name="Uring" unicode="&#x16e;" horiz-adv-x="1564" 
d="M780 -25q-313 0 -481 157t-168 462v870h420v-852q0 -162 50 -234.5t179 -72.5q128 0 179 72.5t51 240.5v846h424v-864q0 -312 -172 -468.5t-482 -156.5zM778 1618q41 0 67.5 29t26.5 73q0 46 -26.5 75.5t-67.5 29.5q-42 0 -68 -29.5t-26 -75.5q0 -45 26 -73.5t68 -28.5z
M778 1483q-101 0 -173.5 70t-72.5 167q0 98 72.5 168t173.5 70t173.5 -70t72.5 -168q0 -97 -72.5 -167t-173.5 -70z" />
    <glyph glyph-name="uring" unicode="&#x16f;" horiz-adv-x="1275" 
d="M633 1268q41 0 67.5 29t26.5 73t-26.5 73.5t-67.5 29.5t-67.5 -29.5t-26.5 -73.5t26.5 -73t67.5 -29zM633 1137q-100 0 -171 68t-71 165t71 166.5t171 69.5t170.5 -69.5t70.5 -166.5t-70.5 -165t-170.5 -68zM461 -25q-162 0 -261.5 101.5t-99.5 296.5v698h367v-639
q0 -91 36.5 -135.5t114.5 -44.5q86 0 134.5 51.5t48.5 151.5v616h366v-1071h-366v166q-98 -191 -340 -191z" />
    <glyph glyph-name="Uhungarumlaut" unicode="&#x170;" horiz-adv-x="1564" 
d="M432 1554l84 299h313l-151 -299h-246zM829 1554l84 299h316l-154 -299h-246zM780 -25q-313 0 -481 157t-168 462v870h420v-852q0 -162 50 -234.5t179 -72.5q128 0 179 72.5t51 240.5v846h424v-864q0 -312 -172 -468.5t-482 -156.5z" />
    <glyph glyph-name="uhungarumlaut" unicode="&#x171;" horiz-adv-x="1275" 
d="M461 -25q-162 0 -261.5 101.5t-99.5 296.5v698h367v-639q0 -91 36.5 -135.5t114.5 -44.5q86 0 134.5 51.5t48.5 151.5v616h366v-1071h-366v166q-98 -191 -340 -191zM319 1194l91 340h286l-157 -340h-220zM684 1194l88 340h287l-158 -340h-217z" />
    <glyph glyph-name="Uogonek" unicode="&#x172;" horiz-adv-x="1564" 
d="M860 -373q-114 0 -180 44.5t-66 119.5q0 105 131 184q-298 9 -456 165.5t-158 453.5v870h420v-852q0 -162 50 -234.5t179 -72.5q128 0 179 72.5t51 240.5v846h424v-864q0 -421 -316 -565q-108 -49 -138 -70q-52 -38 -52 -86q0 -55 63 -55q32 0 62 10v-174
q-76 -33 -193 -33z" />
    <glyph glyph-name="uogonek" unicode="&#x173;" horiz-adv-x="1275" 
d="M993 -373q-109 0 -173 45t-64 121q0 125 176 207h-131v166q-98 -191 -340 -191q-162 0 -261.5 101.5t-99.5 296.5v698h367v-639q0 -91 36.5 -135.5t114.5 -44.5q86 0 134.5 51.5t48.5 151.5v616h366v-1046q-112 -84 -112 -154q0 -57 61 -57q32 0 62 10v-164
q-76 -33 -185 -33z" />
    <glyph glyph-name="Wcircumflex" unicode="&#x174;" horiz-adv-x="2039" 
d="M639 1554l233 299h308l225 -299h-266l-121 101l-119 -101h-260zM369 0l-340 1464h424l188 -913l197 913h372l213 -921l199 921h389l-342 -1464h-438l-225 930l-228 -930h-409z" />
    <glyph glyph-name="wcircumflex" unicode="&#x175;" horiz-adv-x="1730" 
d="M485 1198l252 334h262l242 -334h-256l-125 115l-123 -115h-252zM342 0l-324 1071h383l156 -641l180 641h295l160 -641l174 641h348l-340 -1071h-350l-160 598l-166 -598h-356z" />
    <glyph glyph-name="Ycircumflex" unicode="&#x176;" horiz-adv-x="1386" 
d="M494 0v627l-478 837h457l248 -493l248 493h401l-455 -837v-627h-421zM324 1554l233 299h307l226 -299h-267l-121 101l-118 -101h-260z" />
    <glyph glyph-name="ycircumflex" unicode="&#x177;" horiz-adv-x="1206" 
d="M266 -358l178 467l-428 962h398l221 -571l205 571h350l-574 -1429h-350zM240 1198l252 334h262l241 -334h-256l-125 115l-122 -115h-252z" />
    <glyph glyph-name="Ydieresis" unicode="&#x178;" horiz-adv-x="1386" 
d="M494 0v627l-478 837h457l248 -493l248 493h401l-455 -837v-627h-421zM477 1552q-72 0 -123 50t-51 120q0 72 51 122t123 50q74 0 125 -50t51 -122q0 -71 -51.5 -120.5t-124.5 -49.5zM934 1552q-73 0 -123.5 49.5t-50.5 120.5q0 72 50.5 122t123.5 50q74 0 125 -50
t51 -122q0 -71 -51.5 -120.5t-124.5 -49.5z" />
    <glyph glyph-name="Zacute" unicode="&#x179;" horiz-adv-x="1284" 
d="M502 1554l104 299h383l-211 -299h-276zM27 0v47l622 1096h-543v321h1139v-45l-614 -1095h583v-324h-1187z" />
    <glyph glyph-name="zacute" unicode="&#x17a;" horiz-adv-x="1040" 
d="M391 1194l109 340h368l-215 -340h-262zM20 0v37l469 758h-419v276h944v-39l-482 -756h457v-276h-969z" />
    <glyph glyph-name="Zdotaccent" unicode="&#x17b;" horiz-adv-x="1284" 
d="M27 0v47l622 1096h-543v321h1139v-45l-614 -1095h583v-324h-1187zM659 1550q-83 0 -138.5 53t-55.5 132q0 78 55.5 130t138.5 52t139 -52t56 -130q0 -79 -56 -132t-139 -53z" />
    <glyph glyph-name="zdotaccent" unicode="&#x17c;" horiz-adv-x="1040" 
d="M20 0v37l469 758h-419v276h944v-39l-482 -756h457v-276h-969zM535 1186q-85 0 -141 52.5t-56 131.5q0 78 56 130t141 52q83 0 138.5 -52t55.5 -130q0 -79 -55.5 -131.5t-138.5 -52.5z" />
    <glyph glyph-name="Zcaron" unicode="&#x17d;" horiz-adv-x="1284" 
d="M498 1554l-226 299h267l118 -100l121 100h260l-233 -299h-307zM27 0v47l622 1096h-543v321h1139v-45l-614 -1095h583v-324h-1187z" />
    <glyph glyph-name="zcaron" unicode="&#x17e;" horiz-adv-x="1040" 
d="M397 1198l-243 334h256l125 -115l124 115h250l-252 -334h-260zM20 0v37l469 758h-419v276h944v-39l-482 -756h457v-276h-969z" />
    <glyph glyph-name="florin" unicode="&#x192;" horiz-adv-x="915" 
d="M47 600v248h184l37 256q55 381 453 381q76 0 160 -23v-274q-51 14 -105 14q-127 0 -145 -129l-33 -225h231v-248h-266l-139 -973h-365l138 973h-150z" />
    <glyph glyph-name="Aringacute" unicode="&#x1fa;" horiz-adv-x="1529" 
d="M27 0l469 1464h542l465 -1464h-444l-78 272h-485l-78 -272h-391zM768 1518q-101 0 -173.5 70t-72.5 167q0 98 72.5 168t173.5 70t173.5 -70t72.5 -168q0 -97 -72.5 -167t-173.5 -70zM627 2030l104 299h383l-211 -299h-276zM739 1124l-161 -563h321zM768 1653
q41 0 67.5 29t26.5 73q0 46 -26.5 75.5t-67.5 29.5q-42 0 -68 -29.5t-26 -75.5q0 -45 26 -73.5t68 -28.5z" />
    <glyph glyph-name="aringacute" unicode="&#x1fb;" horiz-adv-x="1183" 
d="M410 -25q-75 0 -138.5 19t-115 56.5t-80.5 101t-29 145.5q0 183 146 266.5t423 83.5h103v25q0 85 -29.5 127.5t-111.5 42.5q-131 0 -146 -127h-344q12 189 149 287t363 98q230 0 356.5 -99.5t126.5 -306.5v-694h-356v125q-98 -150 -317 -150zM537 223q79 0 130.5 42
t51.5 110v65h-96q-113 0 -163 -26t-50 -90q0 -47 32 -74t95 -27zM598 1303q41 0 67.5 29t26.5 73t-26.5 73t-67.5 29t-67.5 -29t-26.5 -73t26.5 -73t67.5 -29zM598 1171q-100 0 -171 68.5t-71 165.5t71 166t171 69t171 -69t71 -166t-71 -165.5t-171 -68.5zM469 1698l104 299
h383l-211 -299h-276z" />
    <glyph glyph-name="AEacute" unicode="&#x1fc;" horiz-adv-x="2052" 
d="M23 0l657 1464h1274v-323h-580v-252h457v-299h-457v-266h613v-324h-1033v299h-403l-129 -299h-399zM1100 1554l104 299h383l-211 -299h-276zM913 1141l-241 -559h282v559h-41z" />
    <glyph glyph-name="aeacute" unicode="&#x1fd;" horiz-adv-x="1859" 
d="M1284 -25q-288 0 -416 187q-69 -92 -171 -139.5t-253 -47.5q-175 0 -286 80.5t-111 241.5q0 356 567 356h109v19q0 85 -31 127.5t-112 42.5q-131 0 -148 -127h-344q12 188 147.5 286.5t350.5 98.5q246 0 346 -127q133 127 342 127q111 0 206 -32.5t170 -98t117.5 -173.5
t42.5 -249v-94h-737q8 -109 62.5 -167.5t150.5 -58.5q157 0 182 127h342q-25 -183 -159.5 -281t-366.5 -98zM821 1194l109 340h368l-215 -340h-262zM1075 653h381q-12 205 -182 205q-83 0 -136 -54t-63 -151zM539 223q84 0 134 41.5t50 110.5v71h-102q-110 0 -160.5 -24.5
t-50.5 -89.5q0 -109 129 -109z" />
    <glyph glyph-name="Oslashacute" unicode="&#x1fe;" horiz-adv-x="1677" 
d="M186 -66l-120 119l163 174q-166 199 -166 496v16q0 164 59.5 304t163.5 236.5t246.5 151t305.5 54.5q268 0 465 -127l149 158l121 -119l-141 -150q182 -195 182 -497v-17q0 -339 -215 -548.5t-568 -209.5q-281 0 -477 138zM840 305q157 0 248.5 113t91.5 309v16
q0 109 -33 203l-533 -559q88 -82 226 -82zM498 725q0 -111 26 -188l523 553q-82 67 -209 67q-158 0 -249 -109t-91 -307v-16zM682 1554l104 299h383l-211 -299h-276z" />
    <glyph glyph-name="oslashacute" unicode="&#x1ff;" horiz-adv-x="1273" 
d="M150 -80l-107 98l135 144q-127 143 -127 360v17q0 168 78 297t211 196.5t299 67.5q189 0 334 -88l133 141l106 -98l-127 -135q138 -151 138 -371v-17q0 -128 -45 -233.5t-124 -176t-186 -109t-231 -38.5q-197 0 -348 93zM494 1194l108 340h369l-215 -340h-262zM639 246
q105 0 160 73t55 209v17q0 63 -12 112l-342 -364q53 -47 139 -47zM422 532q0 -61 8 -100l334 356q-48 39 -125 39q-105 0 -161 -71t-56 -207v-17z" />
    <glyph glyph-name="Scommaaccent" unicode="&#x218;" horiz-adv-x="1333" 
d="M627 -475l-207 55l86 363l323 -39zM678 -25q-305 0 -463.5 125t-167.5 365h399q9 -89 60 -140t172 -51q89 0 138.5 40t49.5 106t-47 93t-184 48q-209 25 -328.5 78.5t-172 146t-52.5 242.5q0 201 154 329t413 128q538 0 578 -457h-389q-21 158 -189 158q-83 0 -126.5 -34
t-43.5 -91q0 -63 47 -94t181 -49q117 -13 201.5 -32.5t155.5 -54t114 -83.5t66.5 -120t23.5 -165q0 -101 -40 -189.5t-113.5 -155t-186 -105t-250.5 -38.5z" />
    <glyph glyph-name="scommaaccent" unicode="&#x219;" horiz-adv-x="1054" 
d="M489 -475l-206 55l86 363l323 -39zM526 -25q-230 0 -357.5 94t-133.5 271h338q10 -62 43 -91.5t108 -29.5q66 0 98.5 23.5t32.5 64.5q0 38 -44 59.5t-154 36.5q-220 28 -314 104.5t-94 240.5q0 115 64 196t165.5 118.5t229.5 37.5q210 0 332.5 -81.5t140.5 -264.5h-332
q-11 55 -43 80.5t-94 25.5q-58 0 -89.5 -23t-31.5 -61t40 -57t140 -31q234 -29 337.5 -104t103.5 -240q0 -185 -128 -277t-358 -92z" />
    <glyph glyph-name="uni0237" unicode="&#x237;" horiz-adv-x="604" 
d="M-12 -377v266q68 5 99.5 35t31.5 92v1055h364v-1063q0 -91 -23.5 -158.5t-78.5 -120t-153 -79.5t-240 -27z" />
    <glyph glyph-name="circumflex" unicode="&#x2c6;" horiz-adv-x="819" 
d="M31 1198l252 334h262l241 -334h-256l-124 115l-123 -115h-252z" />
    <glyph glyph-name="caron" unicode="&#x2c7;" horiz-adv-x="819" 
d="M274 1198l-243 334h256l125 -115l125 115h249l-251 -334h-261z" />
    <glyph glyph-name="breve" unicode="&#x2d8;" horiz-adv-x="819" 
d="M408 1202q-148 0 -237.5 85t-96.5 239h227q10 -99 107 -99q48 0 76.5 27t33.5 72h227q-9 -153 -100.5 -238.5t-236.5 -85.5z" />
    <glyph glyph-name="dotaccent" unicode="&#x2d9;" horiz-adv-x="819" 
d="M410 1186q-85 0 -141 52.5t-56 131.5q0 78 56 130t141 52q83 0 138.5 -52t55.5 -130q0 -79 -55.5 -131.5t-138.5 -52.5z" />
    <glyph glyph-name="ring" unicode="&#x2da;" horiz-adv-x="819" 
d="M410 1315q41 0 67.5 29t26.5 73t-26.5 73.5t-67.5 29.5t-68 -29.5t-27 -73.5t27 -73t68 -29zM410 1184q-100 0 -171 68t-71 165t71 166.5t171 69.5t170.5 -69.5t70.5 -166.5t-70.5 -165t-170.5 -68z" />
    <glyph glyph-name="ogonek" unicode="&#x2db;" horiz-adv-x="819" 
d="M408 -373q-104 0 -172 43t-68 119q0 129 176 211h209q-86 -68 -86 -129q0 -57 61 -57q35 0 62 10v-164q-76 -33 -182 -33z" />
    <glyph glyph-name="tilde" unicode="&#x2dc;" horiz-adv-x="819" 
d="M541 1202q-49 0 -95.5 17t-83 34t-61.5 17q-24 0 -41 -18t-22 -48h-199q10 157 73.5 238.5t161.5 81.5q61 0 138 -35t106 -35q52 0 66 66h198q-12 -154 -78.5 -236t-162.5 -82z" />
    <glyph glyph-name="hungarumlaut" unicode="&#x2dd;" horiz-adv-x="819" 
d="M111 1194l90 340h286l-157 -340h-219zM475 1194l88 340h287l-158 -340h-217z" />
    <glyph glyph-name="Wgrave" unicode="&#x1e80;" horiz-adv-x="2039" 
d="M905 1554l-205 299h381l101 -299h-277zM369 0l-340 1464h424l188 -913l197 913h372l213 -921l199 921h389l-342 -1464h-438l-225 930l-228 -930h-409z" />
    <glyph glyph-name="wgrave" unicode="&#x1e81;" horiz-adv-x="1730" 
d="M342 0l-324 1071h383l156 -641l180 641h295l160 -641l174 641h348l-340 -1071h-350l-160 598l-166 -598h-356zM762 1194l-215 340h368l109 -340h-262z" />
    <glyph glyph-name="Wacute" unicode="&#x1e82;" horiz-adv-x="2039" 
d="M881 1554l104 299h383l-211 -299h-276zM369 0l-340 1464h424l188 -913l197 913h372l213 -921l199 921h389l-342 -1464h-438l-225 930l-228 -930h-409z" />
    <glyph glyph-name="wacute" unicode="&#x1e83;" horiz-adv-x="1730" 
d="M754 1194l108 340h369l-215 -340h-262zM342 0l-324 1071h383l156 -641l180 641h295l160 -641l174 641h348l-340 -1071h-350l-160 598l-166 -598h-356z" />
    <glyph glyph-name="Wdieresis" unicode="&#x1e84;" horiz-adv-x="2039" 
d="M797 1552q-72 0 -123 50t-51 120q0 72 51 122t123 50q74 0 125 -50t51 -122q0 -71 -51.5 -120.5t-124.5 -49.5zM1253 1552q-73 0 -123.5 49.5t-50.5 120.5q0 72 50.5 122t123.5 50q74 0 125.5 -50t51.5 -122q0 -71 -52 -120.5t-125 -49.5zM369 0l-340 1464h424l188 -913
l197 913h372l213 -921l199 921h389l-342 -1464h-438l-225 930l-228 -930h-409z" />
    <glyph glyph-name="wdieresis" unicode="&#x1e85;" horiz-adv-x="1730" 
d="M664 1188q-72 0 -123.5 50t-51.5 120q0 71 51.5 121.5t123.5 50.5q73 0 124.5 -50.5t51.5 -121.5t-51.5 -120.5t-124.5 -49.5zM1100 1188q-73 0 -123.5 49.5t-50.5 120.5t50.5 121.5t123.5 50.5t124.5 -50.5t51.5 -121.5t-51.5 -120.5t-124.5 -49.5zM342 0l-324 1071h383
l156 -641l180 641h295l160 -641l174 641h348l-340 -1071h-350l-160 598l-166 -598h-356z" />
    <glyph glyph-name="Ygrave" unicode="&#x1ef2;" horiz-adv-x="1386" 
d="M494 0v627l-478 837h457l248 -493l248 493h401l-455 -837v-627h-421zM590 1554l-205 299h381l100 -299h-276z" />
    <glyph glyph-name="ygrave" unicode="&#x1ef3;" horiz-adv-x="1206" 
d="M266 -358l178 467l-428 962h398l221 -571l205 571h350l-574 -1429h-350zM502 1194l-215 340h368l109 -340h-262z" />
    <glyph glyph-name="uni2009" unicode="&#x2009;" horiz-adv-x="178" 
 />
    <glyph glyph-name="endash" unicode="&#x2013;" horiz-adv-x="1107" 
d="M94 492v215h920v-215h-920z" />
    <glyph glyph-name="emdash" unicode="&#x2014;" horiz-adv-x="1937" 
d="M94 492v215h1751v-215h-1751z" />
    <glyph glyph-name="quoteleft" unicode="&#x2018;" horiz-adv-x="634" 
d="M385 877l-324 108l281 506l207 -80z" />
    <glyph glyph-name="quoteright" unicode="&#x2019;" horiz-adv-x="634" 
d="M293 877l-207 79l164 535l323 -109z" />
    <glyph glyph-name="quotesinglbase" unicode="&#x201a;" horiz-adv-x="632" 
d="M287 -217l-207 80l164 534l321 -108z" />
    <glyph glyph-name="quotedblleft" unicode="&#x201c;" horiz-adv-x="1097" 
d="M385 877l-324 108l281 506l207 -80zM850 877l-324 108l281 506l207 -80z" />
    <glyph glyph-name="quotedblright" unicode="&#x201d;" horiz-adv-x="1097" 
d="M293 877l-207 79l164 535l323 -109zM756 877l-205 79l164 535l323 -109z" />
    <glyph glyph-name="quotedblbase" unicode="&#x201e;" horiz-adv-x="1097" 
d="M287 -217l-207 80l164 534l321 -108zM750 -217l-205 80l162 534l325 -108z" />
    <glyph glyph-name="dagger" unicode="&#x2020;" horiz-adv-x="829" 
d="M266 436v531h-219v258h219v239h297v-239h219v-258h-219v-531h-297z" />
    <glyph glyph-name="daggerdbl" unicode="&#x2021;" horiz-adv-x="829" 
d="M266 874v152h-219v234h219v204h297v-204h219v-234h-219v-152h219v-233h-219v-205h-297v205h-219v233h219z" />
    <glyph glyph-name="bullet" unicode="&#x2022;" horiz-adv-x="761" 
d="M381 319q-127 0 -214 88.5t-87 213.5t87 212t214 87q129 0 214 -86.5t85 -212.5t-85 -214t-214 -88z" />
    <glyph glyph-name="ellipsis" unicode="&#x2026;" horiz-adv-x="1828" 
d="M303 -23q-90 0 -149.5 60t-59.5 147t59.5 147t149.5 60q92 0 153.5 -60t61.5 -147t-61.5 -147t-153.5 -60zM911 -23q-90 0 -149.5 60t-59.5 147t59.5 147t149.5 60q92 0 153.5 -60t61.5 -147t-61.5 -147t-153.5 -60zM1520 -23q-90 0 -149.5 60t-59.5 147t59.5 147
t149.5 60q92 0 153.5 -60t61.5 -147t-61.5 -147t-153.5 -60z" />
    <glyph glyph-name="perthousand" unicode="&#x2030;" horiz-adv-x="2502" 
d="M436 967q55 0 85 41t30 112t-30 111.5t-85 40.5t-86 -40t-31 -110q0 -74 31 -114.5t86 -40.5zM434 754q-176 0 -279.5 103t-103.5 263q0 154 110.5 257.5t274.5 103.5t273.5 -100.5t109.5 -254.5q0 -161 -105.5 -266.5t-279.5 -105.5zM236 0l1015 1464h201l-1016 -1464
h-200zM1241 188q55 0 85 41.5t30 114.5q0 70 -30 110t-85 40t-86 -40t-31 -110q0 -74 31 -115t86 -41zM1239 -25q-176 0 -279.5 103t-103.5 264q0 154 110.5 257t274.5 103t273.5 -100t109.5 -254q0 -161 -105.5 -267t-279.5 -106zM2068 188q56 0 86.5 41.5t30.5 114.5
q0 70 -30.5 110t-86.5 40q-54 0 -85 -40.5t-31 -109.5q0 -73 31 -114.5t85 -41.5zM2068 -25q-176 0 -280.5 103.5t-104.5 263.5q0 154 110.5 257t274.5 103q165 0 275.5 -100t110.5 -254q0 -161 -107 -267t-279 -106z" />
    <glyph glyph-name="uni2032" unicode="&#x2032;" horiz-adv-x="512" 
d="M72 901l41 563h346l-129 -563h-258z" />
    <glyph glyph-name="uni2033" unicode="&#x2033;" horiz-adv-x="946" 
d="M72 901l41 563h346l-129 -563h-258zM506 901l43 563h344l-127 -563h-260z" />
    <glyph glyph-name="guilsinglleft" unicode="&#x2039;" horiz-adv-x="628" 
d="M317 143l-254 392l254 391h250l-245 -391l245 -392h-250z" />
    <glyph glyph-name="guilsinglright" unicode="&#x203a;" horiz-adv-x="628" 
d="M61 143l246 392l-246 391h248l256 -391l-256 -392h-248z" />
    <glyph glyph-name="fraction" unicode="&#x2044;" horiz-adv-x="344" 
d="M-498 0l1147 1464h193l-1147 -1464h-193z" />
    <glyph glyph-name="Euro" unicode="&#x20ac;" horiz-adv-x="1474" 
d="M47 780v146h129q39 252 209 405.5t428 153.5q265 0 418 -134.5t176 -394.5h-387q-28 213 -211 213q-187 0 -227 -243h317l-25 -146h-301v-106h283l-25 -146h-249q36 -229 229 -229q101 0 154 59t67 179h385q-31 -272 -184.5 -417t-431.5 -145q-270 0 -431 150.5
t-196 402.5h-127v146h119v106h-119z" />
    <glyph glyph-name="trademark" unicode="&#x2122;" horiz-adv-x="1556" 
d="M698 807v657h263l120 -323l123 323h269v-657h-224v375l-147 -375h-68l-145 375v-375h-191zM229 807v485h-170v172h559v-172h-169v-485h-220z" />
    <glyph glyph-name="onethird" unicode="&#x2153;" horiz-adv-x="1665" 
d="M1272 -14q-173 0 -255.5 72.5t-88.5 199.5h237q11 -84 92 -84q38 0 59 18.5t21 51.5q0 67 -92 67h-61v152h61q92 0 92 69q0 29 -17.5 45.5t-51.5 16.5t-57 -20.5t-29 -57.5h-238q9 119 93.5 191.5t236.5 72.5q151 0 235 -57t84 -158q0 -128 -139 -164q70 -11 113 -56
t43 -112q0 -114 -86.5 -180.5t-251.5 -66.5zM215 694v508l-168 -94v219l209 137h233v-770h-274zM119 0l1147 1464h192l-1147 -1464h-192z" />
    <glyph glyph-name="twothirds" unicode="&#x2154;" horiz-adv-x="1761" 
d="M1370 -14q-173 0 -255.5 72.5t-88.5 199.5h238q11 -84 92 -84q38 0 59 18.5t21 51.5q0 67 -93 67h-61v152h61q93 0 93 69q0 29 -18 45.5t-52 16.5t-57 -20.5t-29 -57.5h-238q9 119 93.5 191.5t236.5 72.5q151 0 235.5 -57t84.5 -158q0 -127 -140 -164q70 -11 113 -56
t43 -112q0 -114 -86.5 -180.5t-251.5 -66.5zM16 694v35l263 272q74 76 106.5 121.5t32.5 87.5q0 66 -64 66q-70 0 -82 -107h-245q4 149 94 227.5t246 78.5q155 0 236 -68t81 -178q0 -73 -40.5 -137t-117.5 -134l-71 -69h231v-195h-670zM248 0l1147 1464h192l-1147 -1464
h-192z" />
    <glyph glyph-name="oneeighth" unicode="&#x215b;" horiz-adv-x="1652" 
d="M1255 -14q-170 0 -260 58.5t-90 170.5q0 65 36 114t106 72q-109 48 -109 158q0 102 91 161.5t228 59.5q144 0 232 -57.5t88 -163.5q0 -111 -109 -156q69 -21 103.5 -68.5t34.5 -111.5q0 -113 -91.5 -175t-259.5 -62zM1257 166q36 0 60 22.5t24 57.5t-23.5 57.5
t-60.5 22.5t-61.5 -22t-24.5 -58t24.5 -58t61.5 -22zM1257 465q33 0 54.5 20t21.5 52t-21.5 50.5t-54.5 18.5q-30 0 -52.5 -20t-22.5 -51t22 -50.5t53 -19.5zM215 694v508l-168 -94v219l209 137h233v-770h-274zM100 0l1147 1464h193l-1147 -1464h-193z" />
    <glyph glyph-name="threeeighths" unicode="&#x215c;" horiz-adv-x="1734" 
d="M1337 -14q-170 0 -260 58.5t-90 170.5q0 65 35.5 114t105.5 72q-108 47 -108 158q0 102 91 161.5t228 59.5q144 0 232 -57.5t88 -163.5q0 -111 -109 -156q69 -21 103.5 -68.5t34.5 -111.5q0 -113 -91.5 -175t-259.5 -62zM1339 166q36 0 60 22.5t24 57.5t-23.5 57.5
t-60.5 22.5t-61.5 -22t-24.5 -58t24.5 -58t61.5 -22zM1339 465q33 0 54.5 20t21.5 52t-21.5 50.5t-54.5 18.5q-30 0 -52.5 -20t-22.5 -51t22 -50.5t53 -19.5zM207 0l1147 1464h192l-1147 -1464h-192zM387 680q-330 0 -344 274h238q11 -86 92 -86q38 0 59 18.5t21 51.5
q0 70 -93 70h-61v151h61q93 0 93 70q0 27 -18 43t-52 16t-57 -20t-29 -58h-238q9 121 93 193t237 72q151 0 235.5 -56t84.5 -157q0 -126 -140 -166q70 -11 113 -55.5t43 -112.5q0 -114 -87 -181t-251 -67z" />
    <glyph glyph-name="fiveeighths" unicode="&#x215d;" horiz-adv-x="1705" 
d="M1309 -14q-170 0 -260.5 58.5t-90.5 170.5q0 65 36 114t106 72q-109 48 -109 158q0 102 91.5 161.5t228.5 59.5q144 0 231.5 -57.5t87.5 -163.5q0 -112 -108 -156q69 -21 103 -68.5t34 -111.5q0 -113 -91 -175t-259 -62zM1311 166q36 0 60 22.5t24 57.5t-23.5 57.5
t-60.5 22.5t-61.5 -22t-24.5 -58t24.5 -58t61.5 -22zM1311 465q33 0 54 20t21 52t-21 50.5t-54 18.5q-31 0 -53.5 -20t-22.5 -51t22.5 -50.5t53.5 -19.5zM373 680q-161 0 -243 71t-85 187h246q10 -59 78 -59q33 0 52 22.5t19 61.5t-20 60t-58 21q-61 0 -83 -49h-209l22 469
h576v-190h-389l-7 -164q66 98 201 98q110 0 175 -62.5t65 -178.5q0 -133 -89.5 -210t-250.5 -77zM176 0l1147 1464h193l-1147 -1464h-193z" />
    <glyph glyph-name="seveneighths" unicode="&#x215e;" horiz-adv-x="1642" 
d="M1245 -14q-170 0 -260 58.5t-90 170.5q0 65 35.5 114t105.5 72q-108 47 -108 158q0 102 91 161.5t228 59.5q144 0 232 -57.5t88 -163.5q0 -111 -109 -156q69 -21 103 -68.5t34 -111.5q0 -113 -91 -175t-259 -62zM1247 166q36 0 60 22.5t24 57.5t-23.5 57.5t-60.5 22.5
t-61.5 -22t-24.5 -58t24.5 -58t61.5 -22zM1247 465q33 0 54.5 20t21.5 52t-21.5 50.5t-54.5 18.5q-31 0 -53.5 -20t-22.5 -51t22.5 -50.5t53.5 -19.5zM139 694l209 557h-303v213h643v-26l-278 -744h-271zM74 0l1147 1464h192l-1147 -1464h-192z" />
    <glyph glyph-name="minus" unicode="&#x2212;" horiz-adv-x="1171" 
d="M76 555v283h1020v-283h-1020z" />
    <glyph glyph-name="approxequal" unicode="&#x2248;" horiz-adv-x="1185" 
d="M76 248q11 183 92 273.5t197 90.5q90 0 244 -41t196 -41q38 0 62 23.5t30 67.5h211q-7 -176 -88.5 -270.5t-196.5 -94.5q-93 0 -246.5 41t-195.5 41q-38 0 -62 -23.5t-30 -66.5h-213zM76 700q11 183 92 273t197 90q90 0 244 -41t196 -41q38 0 62 23.5t30 66.5h211
q-7 -175 -88.5 -268.5t-196.5 -93.5q-93 0 -246.5 41t-195.5 41q-38 0 -62 -24.5t-30 -66.5h-213z" />
    <glyph glyph-name="notequal" unicode="&#x2260;" horiz-adv-x="1140" 
d="M80 743v252h500l75 197h238l-78 -197h246v-252h-342l-60 -151h402v-250h-498l-76 -197h-235l76 197h-248v250h344l57 151h-401z" />
    <glyph glyph-name="lessequal" unicode="&#x2264;" horiz-adv-x="1050" 
d="M948 293l-862 461v69l862 463v-328l-340 -167l340 -168v-330zM86 0v242h862v-242h-862z" />
    <glyph glyph-name="greaterequal" unicode="&#x2265;" horiz-adv-x="1050" 
d="M100 293v330l340 168l-340 167v328l865 -463v-69zM100 0v242h865v-242h-865z" />
    <glyph glyph-name="uni24C5" unicode="&#x24c5;" horiz-adv-x="1726" 
d="M571 324v825h326q338 0 338 -281v-6q0 -131 -83 -199.5t-241 -68.5h-84v-270h-256zM827 768h56q110 0 110 94v6q0 88 -108 88h-58v-188zM860 63q135 0 256 49t211 136t142.5 213.5t52.5 273.5q0 193 -88 346.5t-237.5 236.5t-332.5 83q-184 0 -334.5 -84t-237.5 -237.5
t-87 -348.5q0 -147 52.5 -273t141.5 -212t208.5 -134.5t252.5 -48.5zM860 -41q-160 0 -305 59.5t-250 161.5t-167 246t-62 305q0 159 61.5 302.5t167 247t251.5 164t308 60.5q132 0 253 -38.5t217 -109t168 -165t110.5 -212.5t38.5 -245q0 -216 -105 -394.5t-286.5 -280
t-399.5 -101.5z" />
    <glyph glyph-name="zero.tab" unicode="&#xe44f;" 
d="M621 297q88 0 120.5 62t32.5 216v316q0 150 -35.5 214t-122.5 64q-88 0 -124.5 -64.5t-36.5 -215.5v-314q0 -152 38 -215t128 -63zM608 -25q-256 0 -399 154.5t-143 443.5v314q0 144 40.5 258.5t114 188.5t173.5 112.5t220 38.5q121 0 220 -36t173 -106.5t115 -184
t41 -261.5v-313q0 -292 -147 -450.5t-408 -158.5z" />
    <glyph glyph-name="one.tab" unicode="&#xe450;" 
d="M518 0v1051l-352 -238v350l403 301h369v-1464h-420z" />
    <glyph glyph-name="two.tab" unicode="&#xe451;" 
d="M47 0v61l455 539q83 102 126.5 163t74 130t30.5 131q0 71 -32.5 110.5t-94.5 39.5q-72 0 -107 -54.5t-42 -187.5h-383q20 553 549 553q256 0 390 -117t134 -319q0 -73 -21.5 -143.5t-66 -140.5t-90 -126.5t-115.5 -132.5l-178 -184h469v-322h-1098z" />
    <glyph glyph-name="three.tab" unicode="&#xe452;" 
d="M623 -25q-561 0 -580 508h367q6 -101 49.5 -151.5t140.5 -50.5q86 0 128 43.5t42 121.5q0 85 -41.5 126.5t-132.5 41.5h-117v265h113q176 0 176 157q0 67 -38 105.5t-112 38.5q-78 0 -124.5 -47.5t-53.5 -139.5h-360q11 229 153 360.5t394 131.5q241 0 377.5 -108
t136.5 -294q0 -120 -62 -200t-172 -115q121 -27 194 -114t73 -216q0 -214 -143.5 -338.5t-407.5 -124.5z" />
    <glyph glyph-name="four.tab" unicode="&#xe453;" 
d="M657 0v281h-618v143l524 1040h465v-907h148v-276h-148v-281h-371zM375 557h291v588z" />
    <glyph glyph-name="five.tab" unicode="&#xe454;" 
d="M600 -25q-266 0 -397 124.5t-140 365.5h361q6 -87 44.5 -126.5t129.5 -39.5q81 0 120.5 55t39.5 154q0 93 -49 145t-138 52q-141 0 -219 -107h-241l28 866h928v-309h-635l-10 -330q106 158 315 158q198 0 308 -126t110 -349q0 -248 -146 -390.5t-409 -142.5z" />
    <glyph glyph-name="six.tab" unicode="&#xe455;" 
d="M641 -25q-149 0 -260 46.5t-180.5 134.5t-103.5 208.5t-34 274.5v133q0 170 44 305.5t124 224.5t191 136t246 47q225 0 352 -106t137 -326h-350q-10 66 -42 100.5t-97 34.5q-225 0 -228 -406q103 168 305 168q91 0 168.5 -29t136.5 -84.5t92.5 -144.5t33.5 -203
q0 -234 -143 -374t-392 -140zM633 283q80 0 131 55.5t51 142.5q0 93 -50 147t-134 54q-83 0 -136 -52.5t-53 -140.5q0 -95 53 -150.5t138 -55.5z" />
    <glyph glyph-name="seven.tab" unicode="&#xe456;" 
d="M227 0l424 1133h-571v331h1087v-43l-520 -1421h-420z" />
    <glyph glyph-name="eight.tab" unicode="&#xe457;" 
d="M614 -25q-258 0 -408.5 114.5t-150.5 324.5q0 125 63.5 218t182.5 140q-190 93 -190 301q0 128 70 223t183.5 142t253.5 47q222 0 364 -109.5t142 -300.5q0 -210 -190 -301q119 -44 180.5 -134t61.5 -216q0 -210 -151.5 -329.5t-410.5 -119.5zM616 281q82 0 133.5 47.5
t51.5 130.5q0 84 -50 132t-133 48q-82 0 -134 -48t-52 -132q0 -83 52 -130.5t132 -47.5zM621 881q68 0 113.5 43.5t45.5 113.5q0 71 -46.5 114.5t-115.5 43.5q-66 0 -112.5 -43.5t-46.5 -112.5q0 -72 47 -115.5t115 -43.5z" />
    <glyph glyph-name="nine.tab" unicode="&#xe458;" 
d="M580 -23q-239 0 -371.5 109.5t-145.5 329.5h353q21 -142 155 -142q117 0 167.5 96t52.5 308q-101 -166 -308 -166q-90 0 -167 28t-136.5 83t-93 144t-33.5 202q0 234 144 376t393 142q284 0 429.5 -170.5t145.5 -489.5v-149q0 -336 -153 -518.5t-432 -182.5zM598 784
q83 0 135.5 51.5t52.5 139.5q0 96 -53 152.5t-137 56.5q-80 0 -131 -55t-51 -144q0 -93 50 -147t134 -54z" />
    <glyph glyph-name="cent.tab" unicode="&#xe459;" 
d="M567 -276v256q-230 21 -371 161t-141 381v17q0 235 143.5 382t368.5 173v194h160v-192q124 -12 220 -60.5t159.5 -145t73.5 -231.5h-336q-15 123 -117 160v-581q125 38 137 184h322q-9 -187 -129.5 -304.5t-329.5 -137.5v-256h-160zM418 526q0 -229 149 -284v575
q-71 -25 -110 -94.5t-39 -179.5v-17z" />
    <glyph glyph-name="dollar.tab" unicode="&#xe45a;" 
d="M541 -276v256q-244 18 -373.5 146t-138.5 337h360q14 -161 152 -191v297q-256 39 -369 146t-113 319q0 187 130 309.5t352 139.5v182h155v-184q435 -39 471 -443h-352q-10 62 -37 100t-82 52v-281q93 -14 165.5 -35t135 -56.5t103 -83.5t63.5 -117t23 -156
q0 -198 -124.5 -330.5t-365.5 -150.5v-256h-155zM410 1065q0 -55 28 -84.5t103 -46.5v262q-65 -12 -98 -46t-33 -85zM823 416q0 52 -27 80.5t-100 46.5v-273q62 15 94.5 53t32.5 93z" />
    <glyph glyph-name="Euro.tab" unicode="&#xe45b;" 
d="M25 782v146h96q7 174 78.5 301.5t190.5 191.5t272 64q228 0 356.5 -120.5t140.5 -373.5h-340q-9 102 -44 146.5t-111 44.5q-87 0 -130 -61t-47 -193h297l-24 -146h-273v-104h254l-26 -148h-228q5 -130 47 -188.5t132 -58.5q81 0 121 47t47 159h333q-9 -263 -139 -388.5
t-377 -125.5q-238 0 -378 144.5t-152 410.5h-96v148h96v104h-96z" />
    <glyph glyph-name="a.alt" unicode="&#xe4c0;" horiz-adv-x="1298" 
d="M502 -25q-91 0 -170.5 34.5t-142 100.5t-98.5 172.5t-36 241.5v17q0 133 36 240.5t98.5 176.5t143 105.5t171.5 36.5q219 0 319 -178v149h367v-1071h-367v172q-44 -87 -127.5 -142t-193.5 -55zM627 256q95 0 151 70.5t56 203.5v17q0 136 -53 206t-148 70
q-98 0 -151.5 -70.5t-53.5 -207.5v-17q0 -132 53 -202t146 -70z" />
    <glyph glyph-name="t.alt" unicode="&#xe4d3;" horiz-adv-x="776" 
d="M176 0v821h-147v250h147v223h367v-223h196v-250h-196v-821h-367z" />
    <glyph glyph-name="f_i" unicode="&#xfb01;" horiz-adv-x="1382" 
d="M895 0v1071h367v-1071h-367zM1077 1174q-86 0 -143 53t-57 135t57 136t143 54q87 0 145 -54t58 -136q0 -81 -58 -134.5t-145 -53.5zM164 0v821h-135v250h135v94q0 194 111.5 294t306.5 100q81 0 163 -21v-268q-41 12 -96 12q-61 0 -91 -31t-30 -86v-94h217v-250h-217
v-821h-364z" />
    <glyph glyph-name="f_l" unicode="&#xfb02;" horiz-adv-x="1378" 
d="M164 0v821h-135v250h135v94q0 194 111.5 294t306.5 100q81 0 163 -21v-268q-41 12 -96 12q-61 0 -91 -31t-30 -86v-94h217v-250h-217v-821h-364zM895 0v1542h365v-1542h-365z" />
    <glyph glyph-name="idotaccent" horiz-adv-x="604" 
d="M301 1174q-87 0 -144 53.5t-57 134.5q0 82 57.5 136t143.5 54q87 0 145 -54t58 -136q0 -81 -58 -134.5t-145 -53.5zM119 0v1071h366v-1071h-366z" />
    <glyph glyph-name="space_uni0326" horiz-adv-x="819" 
d="M403 -475l-206 55l86 363l323 -39z" />
    <glyph glyph-name="dollar.old" horiz-adv-x="1310" 
d="M569 -268v248q-248 18 -378.5 142t-141.5 327h369q17 -155 151 -185v289q-259 37 -373 141.5t-114 309.5q0 180 131.5 298.5t355.5 135.5v178h160v-180q447 -39 483 -428h-360q-10 60 -38 96.5t-85 50.5v-272q95 -14 169 -35t138 -55t106 -81t65.5 -114t23.5 -152
q0 -92 -30.5 -172t-91 -143.5t-157.5 -104t-223 -49.5v-245h-160zM862 403q0 51 -27.5 78t-105.5 45v-264q65 13 99 49.5t34 91.5zM438 1032q0 -52 28 -80t103 -45v252q-63 -12 -97 -45.5t-34 -81.5z" />
    <glyph glyph-name="Euro.old" horiz-adv-x="1429" 
d="M45 756v141h127q37 244 202 393.5t414 149.5q258 0 406 -129.5t170 -380.5h-375q-12 100 -64 151.5t-141 51.5q-183 0 -221 -236h311l-26 -141h-293v-101h274l-22 -141h-244q36 -225 223 -225q98 0 149.5 57t65.5 174h373q-30 -263 -178.5 -404t-419.5 -141
q-260 0 -416.5 147t-189.5 392h-125v141h117v101h-117z" />
    <glyph glyph-name="sterling.old" horiz-adv-x="1333" 
d="M68 569v240h102q-25 95 -25 176q0 143 73 247.5t195.5 156t278.5 51.5q266 0 400 -126.5t143 -352.5h-371q-12 91 -49.5 131.5t-109.5 40.5q-71 0 -113.5 -45.5t-42.5 -124.5q0 -65 14 -154h350v-240h-311q8 -74 8 -110q0 -59 -20 -117q8 -3 29 -10t29 -9.5t25.5 -7.5
t27 -7.5t23 -5.5t24.5 -4t22 -1q119 0 125 119h367q-8 -194 -115.5 -314t-296.5 -120q-87 0 -170.5 26t-147 52t-100.5 26q-43 0 -67 -24t-29 -62h-301q8 120 61.5 214.5t149.5 135.5q16 46 16 109q0 51 -16 110h-178z" />
    <glyph glyph-name="yen.old" horiz-adv-x="1284" 
d="M127 586v141h272l-379 694h443l205 -465l204 465h390l-359 -694h275v-141h-320v-105h320v-141h-320v-340h-409v340h-322v141h322v105h-322z" />
    <glyph glyph-name="zero.old" horiz-adv-x="1380" 
d="M692 274q232 0 232 340v45q0 336 -234 336q-233 0 -233 -333v-48q0 -340 235 -340zM686 -25q-283 0 -454 168t-171 465v47q0 197 83 343t224.5 220t321.5 74q181 0 321.5 -70t224 -213.5t83.5 -342.5v-48q0 -150 -46.5 -271.5t-130 -202.5t-200 -125t-256.5 -44z" />
    <glyph glyph-name="one.old" horiz-adv-x="890" 
d="M338 0v881l-272 -166v329l323 224h338v-1268h-389z" />
    <glyph glyph-name="two.old" horiz-adv-x="1200" 
d="M23 0v55l464 447q65 62 102 100.5t73.5 85.5t52.5 87.5t16 82.5q0 64 -37.5 101.5t-109.5 37.5q-76 0 -123.5 -54.5t-59.5 -158.5h-352q11 237 158.5 372.5t400.5 135.5q242 0 378 -110.5t136 -292.5q0 -64 -19.5 -122.5t-60.5 -116.5t-85.5 -106t-114.5 -114l-158 -145
h451v-285h-1112z" />
    <glyph glyph-name="three.old" horiz-adv-x="1269" 
d="M641 -213q-289 0 -436 131t-158 367h356q17 -207 218 -207q98 0 148 47.5t50 132.5q0 174 -209 174h-118v248h110q103 0 152 45t49 125q0 73 -42.5 115.5t-119.5 42.5q-85 0 -138.5 -52.5t-64.5 -144.5h-354q13 215 158.5 348t410.5 133q245 0 383 -108.5t138 -290.5
q0 -232 -242 -320q276 -67 276 -340q0 -202 -147 -324t-420 -122z" />
    <glyph glyph-name="four.old" horiz-adv-x="1370" 
d="M748 -188v270h-719v133l618 1053h490v-924h190v-262h-190v-270h-389zM410 344h348v627z" />
    <glyph glyph-name="five.old" horiz-adv-x="1255" 
d="M614 -213q-271 0 -415 129.5t-152 339.5h365q12 -83 56 -128.5t142 -45.5q89 0 141 61t52 154q0 96 -57.5 151.5t-153.5 55.5q-157 0 -242 -107h-241l30 871h967v-303h-678l-10 -342q112 149 342 149q195 0 314.5 -124.5t119.5 -348.5q0 -235 -154.5 -373.5
t-425.5 -138.5z" />
    <glyph glyph-name="six.old" horiz-adv-x="1333" 
d="M688 -25q-131 0 -235 34t-175.5 94.5t-118.5 148t-68 192t-21 228.5v69q0 174 47.5 315t133 234.5t203 144t257.5 50.5q237 0 373 -108.5t159 -317.5h-371q-24 129 -161 129q-234 0 -246 -430q112 176 334 176q204 0 338.5 -121t134.5 -338q0 -226 -157.5 -363
t-426.5 -137zM686 260q90 0 145.5 59.5t55.5 151.5q0 94 -54 152.5t-145 58.5q-92 0 -148.5 -59t-56.5 -148q0 -96 55.5 -155.5t147.5 -59.5z" />
    <glyph glyph-name="seven.old" horiz-adv-x="1169" 
d="M199 -188l438 1134h-594v322h1106v-45l-533 -1411h-417z" />
    <glyph glyph-name="eight.old" horiz-adv-x="1308" 
d="M653 -25q-272 0 -433 114.5t-161 322.5q0 124 73.5 216.5t203.5 139.5q-100 44 -158.5 120t-58.5 185q0 129 74 224t194.5 141.5t269.5 46.5q152 0 272.5 -46.5t192.5 -141t72 -222.5q0 -108 -59 -184.5t-158 -120.5q128 -45 200 -135t72 -213q0 -209 -161.5 -328
t-434.5 -119zM655 260q90 0 146.5 52t56.5 139q0 86 -56 137t-147 51q-90 0 -146 -50.5t-56 -137.5q0 -88 56.5 -139.5t145.5 -51.5zM657 879q77 0 127 46t50 122q0 74 -51 119.5t-126 45.5q-74 0 -125 -46t-51 -119q0 -74 51.5 -121t124.5 -47z" />
    <glyph glyph-name="nine.old" horiz-adv-x="1333" 
d="M625 -217q-244 0 -386.5 116t-162.5 324h368q13 -62 58 -102.5t125 -40.5q125 0 179 97t62 333q-111 -174 -336 -174q-98 0 -183.5 29.5t-150.5 85t-102 141.5t-37 192q0 232 157 370t429 138q165 0 286 -51t193 -146.5t106 -222t34 -288.5v-64q0 -348 -165.5 -542.5
t-473.5 -194.5zM645 586q91 0 147 60t56 149q0 94 -55.5 153.5t-147.5 59.5q-90 0 -144.5 -59t-54.5 -152q0 -92 54 -151.5t145 -59.5z" />
    <glyph glyph-name="space.tab" horiz-adv-x="614" 
 />
    <glyph glyph-name="sterling.tab" 
d="M63 600v221h93q-23 109 -23 195q0 113 39.5 203t109.5 147.5t163 88t202 30.5q252 0 375 -123t131 -365h-338q-10 95 -45.5 133.5t-105.5 38.5q-72 0 -112 -43.5t-40 -132.5q0 -72 14 -172h330v-221h-295q8 -86 8 -129q0 -59 -20 -117q14 -4 46 -14.5t48 -15t38.5 -9
t39.5 -4.5q117 0 125 117h338q-6 -208 -107 -327t-280 -119q-64 0 -126 16.5t-101.5 36.5t-82.5 36.5t-73 16.5q-41 0 -64 -24t-26 -64h-291q8 121 54 214.5t130 137.5q16 53 16 121q0 61 -16 127h-154z" />
    <glyph glyph-name="yen.tab" 
d="M113 602v146h284l-356 716h420l180 -436l180 436h367l-348 -716h297v-146h-314v-104h314v-148h-314v-350h-407v350h-303v148h303v104h-303z" />
    <glyph glyph-name="florin.tab" 
d="M178 600v248h211l37 256q55 381 453 381q75 0 159 -23v-274q-51 14 -104 14q-126 0 -148 -129l-32 -225h254v-248h-289l-137 -973h-365l137 973h-176z" />
    <glyph glyph-name="percent.tab" horiz-adv-x="1638" 
d="M434 987q52 0 80.5 39.5t28.5 110.5q0 68 -28.5 107.5t-80.5 39.5q-51 0 -80.5 -39t-29.5 -108q0 -71 29.5 -110.5t80.5 -39.5zM432 784q-166 0 -265 99t-99 252q0 148 104.5 247t261.5 99q156 0 260.5 -96t104.5 -244q0 -155 -101 -256t-266 -101zM227 0l992 1464h198
l-989 -1464h-201zM1206 178q52 0 80.5 39.5t28.5 110.5q0 68 -28.5 107.5t-80.5 39.5q-51 0 -80.5 -39t-29.5 -108q0 -71 29.5 -110.5t80.5 -39.5zM1204 -25q-167 0 -265.5 99t-98.5 252q0 148 104.5 247t261.5 99q156 0 260.5 -96t104.5 -244q0 -155 -101 -256t-266 -101z
" />
    <glyph glyph-name="perthousand.tab" horiz-adv-x="2048" 
d="M362 981q42 0 61 37.5t19 122.5q0 84 -19 120.5t-61 36.5t-61.5 -36t-19.5 -121q0 -87 19.5 -123.5t61.5 -36.5zM360 793q-145 0 -230 94t-85 252q0 154 90 248t227 94t226.5 -91t89.5 -245q0 -159 -87.5 -255.5t-230.5 -96.5zM96 0l989 1464h195l-989 -1464h-195z
M1004 164q42 0 60.5 37t18.5 123q0 84 -18.5 120.5t-60.5 36.5q-41 0 -61.5 -36.5t-20.5 -120.5q0 -86 20.5 -123t61.5 -37zM1004 -25q-147 0 -232.5 94.5t-85.5 252.5q0 154 91 248t227 94q137 0 226 -90.5t89 -245.5q0 -160 -86 -256.5t-229 -96.5zM1688 164q42 0 60.5 37
t18.5 123q0 84 -18.5 120.5t-60.5 36.5q-41 0 -61.5 -36.5t-20.5 -120.5q0 -86 20.5 -123t61.5 -37zM1686 -25q-145 0 -230.5 94.5t-85.5 252.5q0 154 90 248t228 94q137 0 226 -90.5t89 -245.5q0 -160 -86.5 -256.5t-230.5 -96.5z" />
    <glyph glyph-name="plus.tab" 
d="M467 184v379h-346v266h346v379h295v-379h346v-266h-346v-379h-295z" />
    <glyph glyph-name="minus.tab" 
d="M119 555v283h991v-283h-991z" />
    <glyph glyph-name="plusminus.tab" 
d="M467 360v338h-358v269h358v336h295v-336h360v-269h-360v-338h-295zM109 0v242h1017v-242h-1017z" />
    <glyph glyph-name="multiply.tab" 
d="M303 184l-192 193l311 311l-318 316l195 196l315 -319l314 313l192 -195l-313 -311l319 -315l-196 -195l-316 318z" />
    <glyph glyph-name="divide.tab" 
d="M614 88q-80 0 -136 54.5t-56 133.5q0 78 56.5 134.5t135.5 56.5t136 -56.5t57 -134.5q0 -79 -56.5 -133.5t-136.5 -54.5zM104 569v254h1020v-254h-1020zM614 926q-79 0 -135.5 56t-56.5 134q0 79 56 134t136 55t136.5 -55t56.5 -134q0 -78 -57 -134t-136 -56z" />
    <glyph glyph-name="equal.tab" 
d="M137 342v250h955v-250h-955zM137 743v252h955v-252h-955z" />
    <glyph glyph-name="notequal.tab" 
d="M123 743v252h500l77 197h236l-76 -197h246v-252h-344l-57 -151h401v-250h-498l-76 -197h-237l76 197h-248v250h344l59 151h-403z" />
    <glyph glyph-name="approxequal.tab" 
d="M104 248q10 183 90.5 273.5t196.5 90.5q91 0 239.5 -41t190.5 -41q38 0 62 23.5t30 67.5h211q-6 -175 -87.5 -270t-194.5 -95q-94 0 -242.5 41t-191.5 41q-38 0 -62.5 -23.5t-30.5 -66.5h-211zM104 700q10 183 90.5 273t196.5 90q91 0 239.5 -41t190.5 -41q38 0 62 23.5
t30 66.5h211q-6 -175 -87 -268.5t-195 -93.5q-94 0 -242.5 41t-191.5 41q-38 0 -62.5 -24.5t-30.5 -66.5h-211z" />
    <glyph glyph-name="less.tab" 
d="M1067 121l-905 504v69l905 504v-332l-418 -204l418 -218v-323z" />
    <glyph glyph-name="greater.tab" 
d="M164 123v334l418 202l-418 218v323l903 -504v-69z" />
    <glyph glyph-name="lessequal.tab" 
d="M1038 293l-862 461v69l862 463v-328l-340 -167l340 -168v-330zM176 0v242h862v-242h-862z" />
    <glyph glyph-name="greaterequal.tab" 
d="M190 293v330l340 168l-340 167v328l863 -463v-69zM190 0v242h863v-242h-863z" />
    <glyph glyph-name="period.tab" horiz-adv-x="614" 
d="M305 -23q-90 0 -150.5 60t-60.5 147t60.5 147t150.5 60q92 0 153.5 -60t61.5 -147t-61.5 -147t-153.5 -60z" />
    <glyph glyph-name="comma.tab" horiz-adv-x="614" 
d="M238 -250l-218 84l170 539l342 -121z" />
    <glyph glyph-name="colon.tab" horiz-adv-x="614" 
d="M305 -23q-90 0 -150.5 60t-60.5 147t60.5 147t150.5 60q92 0 153.5 -60t61.5 -147t-61.5 -147t-153.5 -60zM305 563q-90 0 -150.5 59.5t-60.5 147.5q0 87 60.5 147t150.5 60q92 0 153.5 -60t61.5 -147q0 -88 -61.5 -147.5t-153.5 -59.5z" />
    <glyph glyph-name="semicolon.tab" horiz-adv-x="614" 
d="M203 -250l-217 84l172 539l340 -121zM311 563q-90 0 -150.5 59.5t-60.5 147.5q0 87 60.5 147t150.5 60q92 0 153.5 -60t61.5 -147q0 -88 -61.5 -147.5t-153.5 -59.5z" />
    <glyph glyph-name="parenleft.tab" horiz-adv-x="614" 
d="M365 -303q-58 83 -103 167t-92 202t-73.5 265.5t-26.5 309.5q0 132 18.5 256.5t47 219.5t70 187.5t78 155t81.5 127.5h260q-232 -429 -232 -946q0 -515 232 -944h-260z" />
    <glyph glyph-name="parenright.tab" horiz-adv-x="614" 
d="M-10 -303q231 427 231 944q0 519 -231 946h260q45 -65 81.5 -127.5t78 -155t70 -187.5t47 -219.5t18.5 -256.5q0 -162 -26.5 -309.5t-73.5 -265.5t-92 -202t-103 -167h-260z" />
    <glyph glyph-name="bracketleft.tab" horiz-adv-x="614" 
d="M94 -303v1892h488v-239h-160v-1413h160v-240h-488z" />
    <glyph glyph-name="bracketright.tab" horiz-adv-x="614" 
d="M33 -303v240h160v1413h-160v239h487v-1892h-487z" />
    <glyph glyph-name="braceleft.tab" horiz-adv-x="614" 
d="M582 -303q-287 0 -395.5 117t-55.5 364l37 180q16 77 -13.5 119.5t-123.5 52.5v230q94 10 123.5 52.5t13.5 119.5l-37 178q-55 255 52.5 368t398.5 113v-239q-98 -6 -127.5 -48t-10.5 -149l37 -201q22 -117 -27 -190.5t-178 -114.5q129 -41 178 -114.5t27 -192.5
l-37 -201q-20 -109 10 -153.5t128 -50.5v-240z" />
    <glyph glyph-name="braceright.tab" horiz-adv-x="614" 
d="M33 -303v240q98 6 127.5 50.5t9.5 153.5l-37 201q-22 119 27 192.5t178 114.5q-129 41 -178 114.5t-27 190.5l37 201q19 107 -10 149t-127 48v239q290 0 397.5 -113t52.5 -368l-37 -178q-16 -77 14 -119.5t124 -52.5v-230q-94 -10 -124 -52.5t-14 -119.5l37 -180
q53 -247 -55 -364t-395 -117z" />
    <glyph glyph-name="dollar.oldtab" 
d="M543 -268v248q-241 18 -368 142t-136 327h356q17 -156 148 -185v289q-252 37 -362.5 141.5t-110.5 309.5q0 180 128 298.5t345 135.5v178h155v-180q433 -39 469 -428h-350q-10 60 -37 96.5t-82 50.5v-272q117 -18 201.5 -47t151 -78.5t100 -127t33.5 -184.5
q0 -92 -29.5 -172t-87.5 -143.5t-152.5 -104t-216.5 -49.5v-245h-155zM827 403q0 51 -27 78t-102 45v-264q129 27 129 141zM416 1032q0 -53 27 -80.5t100 -44.5v252q-62 -12 -94.5 -45.5t-32.5 -81.5z" />
    <glyph glyph-name="Euro.oldtab" 
d="M49 760v139h94q10 254 154.5 397.5t370.5 143.5q460 0 483 -477h-330q-8 97 -43 139.5t-110 42.5q-82 0 -123 -59.5t-45 -186.5h288l-26 -139h-262v-103h243l-24 -143h-219q5 -127 45 -183.5t127 -56.5q78 0 117.5 47t46.5 154h323q-17 -500 -502 -500q-231 0 -366.5 140
t-147.5 399h-94v143h94v103h-94z" />
    <glyph glyph-name="sterling.oldtab" 
d="M51 567v244h88q-20 88 -20 172q0 110 43 198t116 144t167.5 85.5t201.5 29.5q245 0 372.5 -121.5t135.5 -353.5h-362q-11 96 -38 132t-93 36q-70 0 -105 -41t-35 -129q0 -70 10 -152h306v-244h-273q6 -56 6 -108q0 -65 -18 -117q15 -5 51.5 -17.5t59 -18t43.5 -5.5
q110 0 118 115h357q-7 -199 -116 -316.5t-286 -117.5q-62 0 -120.5 16t-95 36t-76.5 36t-68 16q-41 0 -63 -23.5t-25 -62.5h-309q6 100 54.5 187.5t127.5 138.5q20 58 20 133q0 43 -14 108h-160z" />
    <glyph glyph-name="yen.oldtab" 
d="M129 612v142h274l-348 667h408l180 -417l174 417h357l-340 -667h290v-142h-307v-104h307v-141h-307v-367h-393v367h-295v141h295v104h-295z" />
    <glyph glyph-name="zero.oldtab" 
d="M618 287q88 0 126 65.5t38 202.5v164q0 138 -39.5 203t-128.5 65t-128.5 -65t-39.5 -201v-168q0 -136 40.5 -201t131.5 -65zM608 -25q-253 0 -395.5 153.5t-142.5 424.5v168q0 265 151 418t393 153q160 0 281.5 -62.5t192.5 -191.5t71 -311v-166q0 -274 -147 -430
t-404 -156z" />
    <glyph glyph-name="one.oldtab" 
d="M537 0v881l-359 -234v330l412 291h338v-1268h-391z" />
    <glyph glyph-name="two.oldtab" 
d="M51 0v55l465 447q116 111 168.5 191.5t52.5 160.5q0 67 -34.5 105t-102.5 38q-146 0 -170 -213h-352q14 238 158 373t391 135q237 0 370 -110.5t133 -292.5q0 -122 -67 -225t-207 -234l-158 -145h441v-285h-1088z" />
    <glyph glyph-name="three.oldtab" 
d="M608 -215q-278 0 -418.5 133.5t-146.5 366.5h354q13 -209 203 -209q90 0 136 47t46 131q0 178 -188 178h-113v248h107q91 0 137.5 46.5t46.5 125.5q0 70 -40 113t-116 43q-82 0 -130.5 -50.5t-55.5 -146.5h-350q11 212 156.5 346.5t392.5 134.5q237 0 369 -107t132 -292
q0 -122 -60 -203t-169 -115q122 -27 194 -113t72 -216q0 -212 -147 -336.5t-412 -124.5z" />
    <glyph glyph-name="four.oldtab" 
d="M653 -188v270h-618v129l522 1057h465v-926h154v-260h-154v-270h-369zM360 342h302v612z" />
    <glyph glyph-name="five.oldtab" 
d="M602 -213q-260 0 -392 123t-138 346h348q8 -86 48.5 -131t131.5 -45q86 0 130 58.5t44 160.5q0 100 -50.5 154.5t-141.5 54.5q-146 0 -224 -109h-231l27 869h909v-299h-625l-10 -346q107 155 313 155q190 0 299 -125t109 -338q0 -246 -144 -387t-403 -141z" />
    <glyph glyph-name="six.oldtab" 
d="M645 -25q-285 0 -427 172.5t-142 481.5v151q0 333 161 519t431 186q220 0 346.5 -105.5t138.5 -320.5h-340q-11 67 -45.5 102t-101.5 35q-221 0 -224 -434q109 170 310 170q189 0 305.5 -113t116.5 -334q0 -231 -142.5 -370.5t-386.5 -139.5zM643 262q83 0 137 58t54 151
q0 97 -53 154t-138 57t-141 -55.5t-56 -147.5q0 -99 56 -158t141 -59z" />
    <glyph glyph-name="seven.oldtab" 
d="M213 -188l432 1134h-567v322h1081v-45l-528 -1411h-418z" />
    <glyph glyph-name="eight.oldtab" 
d="M614 -25q-254 0 -402.5 114t-148.5 323q0 125 67.5 217.5t188.5 138.5q-200 88 -200 305q0 129 68.5 224t180.5 141.5t250 46.5q218 0 357 -109t139 -301q0 -215 -199 -305q120 -44 185 -134t65 -214q0 -209 -148.5 -328t-402.5 -119zM616 260q84 0 136.5 51t52.5 138
q0 86 -51 137t-136 51q-84 0 -137 -50.5t-53 -137.5t52 -138t136 -51zM621 879q70 0 115.5 46.5t45.5 121.5q0 74 -47 119.5t-117 45.5q-68 0 -114.5 -45.5t-46.5 -119.5q0 -75 47.5 -121.5t116.5 -46.5z" />
    <glyph glyph-name="nine.oldtab" 
d="M578 -217q-234 0 -365 112t-143 328h336q21 -149 172 -149q113 0 160 98t50 320q-95 -156 -303 -156q-90 0 -167 27t-136.5 79.5t-93 139t-33.5 198.5q0 230 145.5 371t389.5 141q282 0 422.5 -171t140.5 -480v-156q0 -338 -148 -520t-427 -182zM592 590q85 0 139.5 55.5
t54.5 147.5q0 99 -54.5 158t-139.5 59q-83 0 -137 -58t-54 -151q0 -97 53 -154t138 -57z" />
    <glyph glyph-name="zero.num" horiz-adv-x="864" 
d="M432 887q113 0 113 186v17q0 96 -27.5 139t-87.5 43q-58 0 -83 -43.5t-25 -141.5v-14q0 -97 25.5 -141.5t84.5 -44.5zM426 680q-182 0 -280.5 102t-98.5 289v16q0 182 107.5 285t277.5 103t277.5 -97t107.5 -284v-15q0 -187 -104.5 -293t-286.5 -106z" />
    <glyph glyph-name="one.num" horiz-adv-x="585" 
d="M209 694v508l-168 -94v219l209 137h233v-770h-274z" />
    <glyph glyph-name="two.num" horiz-adv-x="722" 
d="M10 694v35l262 272q75 76 107.5 121.5t32.5 87.5q0 66 -64 66q-70 0 -82 -107h-246q4 149 94 227.5t246 78.5q155 0 236.5 -68.5t81.5 -177.5q0 -73 -40.5 -137t-117.5 -134l-71 -69h231v-195h-670z" />
    <glyph glyph-name="three.num" horiz-adv-x="765" 
d="M381 680q-330 0 -344 274h237q11 -86 93 -86q38 0 58.5 18.5t20.5 51.5q0 70 -92 70h-61v151h61q92 0 92 70q0 27 -17.5 43t-51.5 16t-57 -20t-29 -58h-238q9 121 93 193t237 72q151 0 235 -56t84 -157q0 -127 -139 -166q70 -11 113 -55.5t43 -112.5q0 -114 -87 -181
t-251 -67z" />
    <glyph glyph-name="four.num" horiz-adv-x="806" 
d="M408 694v144h-383v100l319 526h326v-448h98v-178h-98v-144h-262zM258 1016h158v270z" />
    <glyph glyph-name="five.num" horiz-adv-x="751" 
d="M367 680q-161 0 -243 71t-85 187h246q10 -59 77 -59q34 0 53 22.5t19 61.5t-20 60t-58 21q-62 0 -84 -49h-209l23 469h576v-190h-390l-6 -164q66 98 201 98q110 0 175 -62.5t65 -178.5q0 -133 -89.5 -210t-250.5 -77z" />
    <glyph glyph-name="six.num" horiz-adv-x="800" 
d="M420 680q-190 0 -281.5 103t-91.5 282v22q0 178 106 283t273 105q145 0 225.5 -62t91.5 -180h-247q-8 51 -66 51q-104 0 -111 -176q57 84 181 84q114 0 187 -58.5t73 -177.5q0 -126 -91 -201t-249 -75zM416 860q38 0 61 26t23 66q0 38 -23.5 63t-60.5 25t-59.5 -25.5
t-22.5 -62.5q0 -42 22 -67t60 -25z" />
    <glyph glyph-name="seven.num" horiz-adv-x="702" 
d="M133 694l209 557h-303v213h643v-26l-279 -744h-270z" />
    <glyph glyph-name="eight.num" horiz-adv-x="778" 
d="M389 680q-169 0 -259.5 59.5t-90.5 171.5q0 64 36 114.5t105 72.5q-108 44 -108 155q0 104 91 163t228 59q144 0 232 -57.5t88 -162.5q0 -110 -109 -155q137 -44 137 -180q0 -113 -91 -176.5t-259 -63.5zM391 862q36 0 60 21.5t24 56.5t-23.5 57.5t-60.5 22.5t-61.5 -22
t-24.5 -58t24 -57t62 -21zM391 1159q33 0 54.5 20t21.5 52t-21.5 50.5t-54.5 18.5q-30 0 -53 -19.5t-23 -49.5q0 -31 23 -51.5t53 -20.5z" />
    <glyph glyph-name="nine.num" horiz-adv-x="800" 
d="M381 680q-147 0 -232 64t-96 180h250q11 -52 72 -52q105 0 108 172q-30 -40 -66.5 -59.5t-103.5 -19.5q-123 0 -196.5 57.5t-73.5 179.5q0 124 91.5 199.5t246.5 75.5q186 0 280.5 -105t94.5 -280v-21q0 -186 -96.5 -288.5t-278.5 -102.5zM381 1116q39 0 61.5 24t22.5 62
q0 42 -22.5 68t-61.5 26q-36 0 -59 -26t-23 -66q0 -38 22.5 -63t59.5 -25z" />
    <glyph glyph-name="zero.den" horiz-adv-x="864" 
d="M432 193q58 0 85.5 45t27.5 141v14q0 98 -27.5 141.5t-87.5 43.5q-58 0 -83 -43.5t-25 -141.5v-16q0 -97 25.5 -140.5t84.5 -43.5zM426 -14q-182 0 -280.5 102t-98.5 289v16q0 181 107.5 284t277.5 103t277.5 -97.5t107.5 -285.5v-14q0 -187 -104.5 -292t-286.5 -105z
" />
    <glyph glyph-name="one.den" horiz-adv-x="587" 
d="M209 0v508l-168 -94v219l209 137h233v-770h-274z" />
    <glyph glyph-name="two.den" horiz-adv-x="724" 
d="M10 0v35l262 272q73 73 106.5 119.5t33.5 87.5q0 68 -64 68q-71 0 -82 -109h-246q4 150 94 228.5t246 78.5q155 0 236.5 -68.5t81.5 -176.5q0 -74 -40 -137t-118 -136l-71 -67h231v-195h-670z" />
    <glyph glyph-name="three.den" horiz-adv-x="765" 
d="M381 -14q-173 0 -255.5 72.5t-88.5 199.5h237q11 -84 93 -84q38 0 58.5 18.5t20.5 51.5q0 67 -92 67h-61v152h61q92 0 92 69q0 29 -17.5 45.5t-51.5 16.5t-57 -20.5t-29 -57.5h-238q9 119 93.5 191.5t236.5 72.5q151 0 235 -57t84 -158q0 -128 -139 -164q70 -11 113 -56
t43 -112q0 -114 -86.5 -180.5t-251.5 -66.5z" />
    <glyph glyph-name="four.den" horiz-adv-x="808" 
d="M408 0v143h-383v101l319 526h326v-448h98v-179h-98v-143h-262zM258 322h158v268z" />
    <glyph glyph-name="five.den" horiz-adv-x="751" 
d="M367 -14q-161 0 -243 71t-85 187h246q11 -62 77 -62q33 0 52.5 23.5t19.5 62.5q0 37 -20 58.5t-58 21.5q-61 0 -84 -47h-209l23 469h576v-190h-390l-6 -164q65 96 201 96q110 0 175 -62.5t65 -177.5q0 -133 -89.5 -209.5t-250.5 -76.5z" />
    <glyph glyph-name="six.den" horiz-adv-x="802" 
d="M420 -14q-191 0 -282 102.5t-91 282.5v22q0 178 105.5 282.5t273.5 104.5q146 0 226 -61.5t91 -179.5h-247q-8 51 -66 51q-104 0 -111 -176q57 84 181 84q114 0 187 -59t73 -179q0 -124 -91 -199t-249 -75zM416 166q38 0 61 25t23 65q0 39 -23.5 63.5t-60.5 24.5
t-59.5 -25t-22.5 -63q0 -40 22 -65t60 -25z" />
    <glyph glyph-name="seven.den" horiz-adv-x="704" 
d="M133 0l209 557h-303v213h643v-29l-279 -741h-270z" />
    <glyph glyph-name="eight.den" horiz-adv-x="780" 
d="M389 -14q-170 0 -260 58.5t-90 170.5q0 65 35.5 114t105.5 72q-108 47 -108 158q0 102 91 161.5t228 59.5q144 0 232 -57.5t88 -163.5q0 -111 -109 -156q69 -21 103 -68.5t34 -111.5q0 -113 -91 -175t-259 -62zM391 166q36 0 60 22.5t24 57.5t-23.5 57.5t-60.5 22.5
t-61.5 -22t-24.5 -58t24.5 -58t61.5 -22zM391 465q33 0 54.5 20t21.5 52t-21.5 50.5t-54.5 18.5q-31 0 -53.5 -20t-22.5 -51t22.5 -50.5t53.5 -19.5z" />
    <glyph glyph-name="nine.den" horiz-adv-x="802" 
d="M381 -14q-147 0 -232 63.5t-96 179.5h250q11 -51 72 -51q105 0 108 170q-31 -40 -67.5 -60t-102.5 -20q-122 0 -196 58.5t-74 179.5q0 125 91 199.5t247 74.5q187 0 281 -104t94 -279v-20q0 -187 -96.5 -289t-278.5 -102zM381 422q39 0 61.5 24t22.5 62q0 41 -22.5 66.5
t-61.5 25.5q-37 0 -59.5 -25t-22.5 -65q0 -39 22 -63.5t60 -24.5z" />
    <glyph glyph-name="zero.sub" horiz-adv-x="864" 
d="M432 -53q113 0 113 186v17q0 96 -27.5 139t-87.5 43q-58 0 -83 -43.5t-25 -141.5v-14q0 -97 25.5 -141.5t84.5 -44.5zM426 -260q-182 0 -280.5 102t-98.5 289v16q0 182 107.5 285t277.5 103t277.5 -97t107.5 -284v-15q0 -187 -104.5 -293t-286.5 -106z" />
    <glyph glyph-name="one.sub" horiz-adv-x="587" 
d="M209 -246v508l-168 -94v219l209 137h233v-770h-274z" />
    <glyph glyph-name="two.sub" horiz-adv-x="724" 
d="M10 -246v35l262 272q75 76 107.5 121.5t32.5 87.5q0 66 -64 66q-70 0 -82 -107h-246q4 149 94 227.5t246 78.5q155 0 236.5 -68.5t81.5 -177.5q0 -73 -40.5 -137t-117.5 -134l-71 -69h231v-195h-670z" />
    <glyph glyph-name="three.sub" horiz-adv-x="765" 
d="M381 -260q-330 0 -344 274h237q11 -86 93 -86q38 0 58.5 18.5t20.5 51.5q0 70 -92 70h-61v151h61q92 0 92 70q0 27 -17.5 43t-51.5 16t-57 -20t-29 -58h-238q9 121 93 193t237 72q151 0 235 -56t84 -157q0 -127 -139 -166q70 -11 113 -55.5t43 -112.5q0 -114 -87 -181
t-251 -67z" />
    <glyph glyph-name="four.sub" horiz-adv-x="808" 
d="M408 -246v144h-383v100l319 526h326v-448h98v-178h-98v-144h-262zM258 76h158v270z" />
    <glyph glyph-name="five.sub" horiz-adv-x="751" 
d="M367 -260q-161 0 -243 71t-85 187h246q10 -59 77 -59q34 0 53 22.5t19 61.5t-20 60t-58 21q-62 0 -84 -49h-209l23 469h576v-190h-390l-6 -164q66 98 201 98q110 0 175 -62.5t65 -178.5q0 -133 -89.5 -210t-250.5 -77z" />
    <glyph glyph-name="six.sub" horiz-adv-x="802" 
d="M420 -260q-190 0 -281.5 103t-91.5 282v22q0 178 106 283t273 105q145 0 225.5 -62t91.5 -180h-247q-8 51 -66 51q-104 0 -111 -176q57 84 181 84q114 0 187 -58.5t73 -177.5q0 -126 -91 -201t-249 -75zM416 -80q38 0 61 26t23 66q0 38 -23.5 63t-60.5 25t-59.5 -25.5
t-22.5 -62.5q0 -42 22 -67t60 -25z" />
    <glyph glyph-name="seven.sub" horiz-adv-x="704" 
d="M133 -246l209 557h-303v213h643v-26l-279 -744h-270z" />
    <glyph glyph-name="eight.sub" horiz-adv-x="780" 
d="M389 -260q-169 0 -259.5 59.5t-90.5 171.5q0 64 36 114.5t105 72.5q-108 44 -108 155q0 104 91 163t228 59q144 0 232 -57.5t88 -162.5q0 -110 -109 -155q137 -44 137 -180q0 -113 -91 -176.5t-259 -63.5zM391 -78q36 0 60 21.5t24 56.5t-23.5 57.5t-60.5 22.5t-61.5 -22
t-24.5 -58t24 -57t62 -21zM391 219q33 0 54.5 20t21.5 52t-21.5 50.5t-54.5 18.5q-30 0 -53 -19.5t-23 -49.5q0 -31 23 -51.5t53 -20.5z" />
    <glyph glyph-name="nine.sub" horiz-adv-x="802" 
d="M381 -260q-147 0 -232 64t-96 180h250q11 -52 72 -52q105 0 108 172q-30 -40 -66.5 -59.5t-103.5 -19.5q-123 0 -196.5 57.5t-73.5 179.5q0 124 91.5 199.5t246.5 75.5q186 0 280.5 -105t94.5 -280v-21q0 -186 -96.5 -288.5t-278.5 -102.5zM381 176q39 0 61.5 24t22.5 62
q0 42 -22.5 68t-61.5 26q-36 0 -59 -26t-23 -66q0 -38 22.5 -63t59.5 -25z" />
    <glyph glyph-name="plus.sub" horiz-adv-x="731" 
d="M268 -145v200h-196v191h196v203h195v-203h196v-191h-196v-200h-195z" />
    <glyph glyph-name="minus.sub" horiz-adv-x="731" 
d="M72 55v191h587v-191h-587z" />
    <glyph glyph-name="zero.sup" horiz-adv-x="864" 
d="M432 1006q113 0 113 186v16q0 96 -27.5 139.5t-87.5 43.5q-58 0 -83 -43.5t-25 -141.5v-14q0 -97 25.5 -141.5t84.5 -44.5zM426 799q-182 0 -280.5 102t-98.5 289v16q0 181 107.5 284t277.5 103t277.5 -97t107.5 -284v-14q0 -187 -104.5 -293t-286.5 -106z" />
    <glyph glyph-name="one.sup" horiz-adv-x="587" 
d="M209 813v508l-168 -94v219l209 137h233v-770h-274z" />
    <glyph glyph-name="two.sup" horiz-adv-x="724" 
d="M10 813v35l262 272q75 76 107.5 121.5t32.5 87.5q0 66 -64 66q-70 0 -82 -107h-246q4 149 94 227t246 78q155 0 236.5 -68t81.5 -177q0 -73 -40.5 -137t-117.5 -134l-71 -69h231v-195h-670z" />
    <glyph glyph-name="three.sup" horiz-adv-x="765" 
d="M381 799q-330 0 -344 274h237q11 -86 93 -86q38 0 58.5 18.5t20.5 51.5q0 69 -92 69h-61v152h61q92 0 92 70q0 27 -17.5 43t-51.5 16t-57 -20t-29 -58h-238q9 120 93 192t237 72q151 0 235 -56t84 -157q0 -127 -139 -166q71 -11 113.5 -55t42.5 -112q0 -114 -87 -181
t-251 -67z" />
    <glyph glyph-name="four.sup" horiz-adv-x="808" 
d="M408 813v143h-383v101l319 526h326v-448h98v-179h-98v-143h-262zM258 1135h158v270z" />
    <glyph glyph-name="five.sup" horiz-adv-x="751" 
d="M367 799q-161 0 -243 71t-85 187h246q10 -60 77 -60q34 0 53 22.5t19 61.5t-20 60.5t-58 21.5q-62 0 -84 -49h-209l23 469h576v-190h-390l-6 -164q66 98 201 98q110 0 175 -63t65 -179q0 -133 -89.5 -209.5t-250.5 -76.5z" />
    <glyph glyph-name="six.sup" horiz-adv-x="802" 
d="M420 799q-190 0 -281.5 103t-91.5 282v22q0 178 105.5 282.5t273.5 104.5q146 0 226 -61.5t91 -179.5h-247q-8 51 -66 51q-104 0 -111 -176q57 84 181 84q114 0 187 -58.5t73 -177.5q0 -126 -91 -201t-249 -75zM416 979q38 0 61 26t23 66q0 38 -23.5 63t-60.5 25
t-59.5 -25.5t-22.5 -62.5q0 -42 22 -67t60 -25z" />
    <glyph glyph-name="seven.sup" horiz-adv-x="704" 
d="M133 813l209 557h-303v213h643v-27l-279 -743h-270z" />
    <glyph glyph-name="eight.sup" horiz-adv-x="780" 
d="M389 799q-169 0 -259.5 59.5t-90.5 171.5q0 64 36 114.5t105 72.5q-108 44 -108 155q0 104 90.5 162.5t228.5 58.5q144 0 232 -57.5t88 -161.5q0 -110 -109 -155q137 -44 137 -181q0 -113 -91 -176t-259 -63zM391 981q36 0 60 21.5t24 56.5t-23.5 57.5t-60.5 22.5
t-61.5 -22t-24.5 -58t24 -57t62 -21zM391 1278q33 0 54.5 20t21.5 52t-21.5 50.5t-54.5 18.5q-30 0 -53 -19.5t-23 -49.5q0 -31 23 -51.5t53 -20.5z" />
    <glyph glyph-name="nine.sup" horiz-adv-x="802" 
d="M381 799q-147 0 -232 63.5t-96 179.5h250q11 -51 72 -51q105 0 108 172q-30 -40 -67 -60t-103 -20q-122 0 -196 58t-74 180q0 124 91 199t247 75q186 0 280.5 -105t94.5 -280v-20q0 -186 -96.5 -288.5t-278.5 -102.5zM381 1235q39 0 61.5 24t22.5 62q0 42 -22.5 68
t-61.5 26q-36 0 -59 -26t-23 -66q0 -38 22.5 -63t59.5 -25z" />
    <glyph glyph-name="plus.sup" horiz-adv-x="731" 
d="M268 913v201h-196v191h196v202h195v-202h196v-191h-196v-201h-195z" />
    <glyph glyph-name="minus.sup" horiz-adv-x="731" 
d="M72 1114v191h587v-191h-587z" />
    <glyph glyph-name="aacute.alt" horiz-adv-x="1298" 
d="M516 1194l109 340h368l-215 -340h-262zM502 -25q-91 0 -170.5 34.5t-142 100.5t-98.5 172.5t-36 241.5v17q0 133 36 240.5t98.5 176.5t143 105.5t171.5 36.5q219 0 319 -178v149h367v-1071h-367v172q-44 -87 -127.5 -142t-193.5 -55zM627 256q95 0 151 70.5t56 203.5v17
q0 136 -53 206t-148 70q-98 0 -151.5 -70.5t-53.5 -207.5v-17q0 -132 53 -202t146 -70z" />
    <glyph glyph-name="abreve.alt" horiz-adv-x="1298" 
d="M502 -25q-91 0 -170.5 34.5t-142 100.5t-98.5 172.5t-36 241.5v17q0 133 36 240.5t98.5 176.5t143 105.5t171.5 36.5q219 0 319 -178v149h367v-1071h-367v172q-44 -87 -127.5 -142t-193.5 -55zM627 256q95 0 151 70.5t56 203.5v17q0 136 -53 206t-148 70
q-98 0 -151.5 -70.5t-53.5 -207.5v-17q0 -132 53 -202t146 -70zM657 1202q-148 0 -237 85t-96 239h227q10 -99 106 -99q48 0 77 27t34 72h227q-9 -153 -101 -238.5t-237 -85.5z" />
    <glyph glyph-name="acircumflex.alt" horiz-adv-x="1298" 
d="M281 1198l251 334h263l241 -334h-256l-125 115l-123 -115h-251zM502 -25q-91 0 -170.5 34.5t-142 100.5t-98.5 172.5t-36 241.5v17q0 133 36 240.5t98.5 176.5t143 105.5t171.5 36.5q219 0 319 -178v149h367v-1071h-367v172q-44 -87 -127.5 -142t-193.5 -55zM627 256
q95 0 151 70.5t56 203.5v17q0 136 -53 206t-148 70q-98 0 -151.5 -70.5t-53.5 -207.5v-17q0 -132 53 -202t146 -70z" />
    <glyph glyph-name="adieresis.alt" horiz-adv-x="1298" 
d="M442 1188q-72 0 -123 50t-51 120q0 71 51 121.5t123 50.5q73 0 124.5 -50.5t51.5 -121.5t-51.5 -120.5t-124.5 -49.5zM879 1188q-73 0 -123.5 49.5t-50.5 120.5t50.5 121.5t123.5 50.5t124.5 -50.5t51.5 -121.5t-51.5 -120.5t-124.5 -49.5zM502 -25q-91 0 -170.5 34.5
t-142 100.5t-98.5 172.5t-36 241.5v17q0 133 36 240.5t98.5 176.5t143 105.5t171.5 36.5q219 0 319 -178v149h367v-1071h-367v172q-44 -87 -127.5 -142t-193.5 -55zM627 256q95 0 151 70.5t56 203.5v17q0 136 -53 206t-148 70q-98 0 -151.5 -70.5t-53.5 -207.5v-17
q0 -132 53 -202t146 -70z" />
    <glyph glyph-name="agrave.alt" horiz-adv-x="1298" 
d="M502 -25q-91 0 -170.5 34.5t-142 100.5t-98.5 172.5t-36 241.5v17q0 133 36 240.5t98.5 176.5t143 105.5t171.5 36.5q219 0 319 -178v149h367v-1071h-367v172q-44 -87 -127.5 -142t-193.5 -55zM627 256q95 0 151 70.5t56 203.5v17q0 136 -53 206t-148 70
q-98 0 -151.5 -70.5t-53.5 -207.5v-17q0 -132 53 -202t146 -70zM539 1194l-215 340h368l109 -340h-262z" />
    <glyph glyph-name="amacron.alt" horiz-adv-x="1298" 
d="M502 -25q-91 0 -170.5 34.5t-142 100.5t-98.5 172.5t-36 241.5v17q0 133 36 240.5t98.5 176.5t143 105.5t171.5 36.5q219 0 319 -178v149h367v-1071h-367v172q-44 -87 -127.5 -142t-193.5 -55zM627 256q95 0 151 70.5t56 203.5v17q0 136 -53 206t-148 70
q-98 0 -151.5 -70.5t-53.5 -207.5v-17q0 -132 53 -202t146 -70zM344 1253v205h629v-205h-629z" />
    <glyph glyph-name="aogonek.alt" horiz-adv-x="1298" 
d="M1016 -373q-110 0 -175 45t-65 121q0 125 176 207h-129v172q-44 -87 -127.5 -142t-193.5 -55q-91 0 -170.5 34.5t-142 100.5t-98.5 172.5t-36 241.5v17q0 133 36 240.5t98.5 176.5t143 105.5t171.5 36.5q219 0 319 -178v149h367v-1046q-115 -86 -115 -154q0 -57 62 -57
q34 0 61 10v-164q-76 -33 -182 -33zM627 256q95 0 151 70.5t56 203.5v17q0 136 -53 206t-148 70q-98 0 -151.5 -70.5t-53.5 -207.5v-17q0 -132 53 -202t146 -70z" />
    <glyph glyph-name="aring.alt" horiz-adv-x="1298" 
d="M655 1315q41 0 68 29t27 73t-27 73.5t-68 29.5t-67.5 -29.5t-26.5 -73.5t26.5 -73t67.5 -29zM655 1184q-100 0 -170.5 68t-70.5 165t70.5 166.5t170.5 69.5t171 -69.5t71 -166.5t-71 -165t-171 -68zM502 -25q-91 0 -170.5 34.5t-142 100.5t-98.5 172.5t-36 241.5v17
q0 133 36 240.5t98.5 176.5t143 105.5t171.5 36.5q219 0 319 -178v149h367v-1071h-367v172q-44 -87 -127.5 -142t-193.5 -55zM627 256q95 0 151 70.5t56 203.5v17q0 136 -53 206t-148 70q-98 0 -151.5 -70.5t-53.5 -207.5v-17q0 -132 53 -202t146 -70z" />
    <glyph glyph-name="aringacute.alt" horiz-adv-x="1298" 
d="M655 1303q41 0 68 29t27 73t-27 73t-68 29t-67.5 -29t-26.5 -73t26.5 -73t67.5 -29zM655 1171q-100 0 -170.5 68.5t-70.5 165.5t70.5 166t170.5 69t171 -69t71 -166t-71 -165.5t-171 -68.5zM502 -25q-91 0 -170.5 34.5t-142 100.5t-98.5 172.5t-36 241.5v17
q0 133 36 240.5t98.5 176.5t143 105.5t171.5 36.5q219 0 319 -178v149h367v-1071h-367v172q-44 -87 -127.5 -142t-193.5 -55zM627 256q95 0 151 70.5t56 203.5v17q0 136 -53 206t-148 70q-98 0 -151.5 -70.5t-53.5 -207.5v-17q0 -132 53 -202t146 -70zM526 1698l105 299h383
l-211 -299h-277z" />
    <glyph glyph-name="atilde.alt" horiz-adv-x="1298" 
d="M502 -25q-91 0 -170.5 34.5t-142 100.5t-98.5 172.5t-36 241.5v17q0 133 36 240.5t98.5 176.5t143 105.5t171.5 36.5q219 0 319 -178v149h367v-1071h-367v172q-44 -87 -127.5 -142t-193.5 -55zM627 256q95 0 151 70.5t56 203.5v17q0 136 -53 206t-148 70
q-98 0 -151.5 -70.5t-53.5 -207.5v-17q0 -132 53 -202t146 -70zM788 1202q-49 0 -95.5 17t-82.5 34t-61 17t-42 -18t-22 -48h-198q10 157 73.5 238.5t161.5 81.5q61 0 138 -35t106 -35q51 0 65 66h199q-12 -154 -78.5 -236t-163.5 -82z" />
    <glyph glyph-name="germandbls.alt" horiz-adv-x="1417" 
d="M958 -18q-206 0 -315.5 91.5t-114.5 254.5h318q6 -109 92 -109q84 0 84 88q0 11 -2.5 21t-5 18t-10 16t-12.5 14t-17.5 14t-19.5 12t-23.5 12.5t-25 12.5t-29.5 13.5t-31 14.5q-54 25 -90.5 47t-78.5 57t-63.5 81.5t-21.5 102.5q0 53 23.5 105t57 92t66.5 77t56.5 75
t23.5 71q0 64 -35 95.5t-112 31.5q-92 0 -144.5 -50.5t-52.5 -147.5v-1092h-366v1085q0 150 73 259.5t200.5 165t295.5 55.5q228 0 365 -91.5t137 -256.5q0 -67 -25 -124.5t-60.5 -96t-71 -70t-60.5 -60t-25 -51.5q0 -9 3 -16t11.5 -15t17.5 -14.5t27.5 -16.5t35.5 -18.5
t46.5 -23.5t55.5 -29q51 -27 89.5 -56.5t73.5 -70t53.5 -93.5t18.5 -116q0 -176 -113 -270t-299 -94z" />
    <glyph glyph-name="tbar.alt" horiz-adv-x="776" 
d="M29 477v203h147v141h-147v250h147v223h367v-223h196v-250h-196v-141h196v-203h-196v-477h-367v477h-147z" />
    <glyph glyph-name="tcaron.alt" horiz-adv-x="776" 
d="M176 0v821h-147v250h147v223h367v-223h196v-250h-196v-821h-367zM627 1186l18 356h273l-101 -356h-190z" />
    <glyph glyph-name="tcommaaccent.alt" horiz-adv-x="776" 
d="M332 -475l-207 55l86 363l324 -39zM176 0v821h-147v250h147v223h367v-223h196v-250h-196v-821h-367z" />
    <glyph glyph-name="space_uni0326.alt" horiz-adv-x="819" 
d="M563 1159l-323 39l202 379l207 -55z" />
    <glyph glyph-name="registered.alt" horiz-adv-x="1726" 
d="M535 326v825h333q169 0 255.5 -67t86.5 -199v-4q0 -158 -139 -217l189 -338h-265l-157 284h-50v-284h-253zM788 776h66q109 0 109 92v6q0 84 -107 84h-68v-182zM860 63q135 0 256 49t211 136t142.5 213.5t52.5 273.5q0 193 -88 346.5t-237.5 236.5t-332.5 83
q-184 0 -334.5 -84t-237.5 -237.5t-87 -348.5q0 -147 52.5 -273t141.5 -212t208.5 -134.5t252.5 -48.5zM860 -41q-160 0 -305 59.5t-250 161.5t-167 246t-62 305q0 159 61.5 302.5t167 247t251.5 164t308 60.5q132 0 253 -38.5t217 -109t168 -165t110.5 -212.5t38.5 -245
q0 -216 -105 -394.5t-286.5 -280t-399.5 -101.5z" />
    <glyph glyph-name="caron.alt" horiz-adv-x="819" 
d="M307 1186l19 356h272l-100 -356h-191z" />
    <glyph glyph-name="questiondown.uc" horiz-adv-x="1138" 
d="M793 983v-39q0 -45 -13 -88.5t-28.5 -73t-48 -68.5t-51 -57.5t-58.5 -56.5q-46 -43 -69.5 -68t-44.5 -62t-21 -71q0 -123 125 -123q67 0 108.5 47.5t52.5 133.5h357q-7 -227 -156 -352t-389 -125q-237 0 -366.5 101t-129.5 284q0 93 39.5 165.5t110.5 141.5
q23 22 75 69.5t76.5 72.5t51 64t32.5 74v31h347zM621 1487q92 0 155.5 -59t63.5 -144t-63.5 -145t-155.5 -60q-91 0 -155.5 60t-64.5 145t64.5 144t155.5 59z" />
    <glyph glyph-name="exclamdown.uc" horiz-adv-x="684" 
d="M135 0l55 983h304l55 -983h-414zM342 1079q-91 0 -155 60t-64 145t64 144t155 59t154 -59t63 -144t-63 -145t-154 -60z" />
    <glyph glyph-name="hyphen.uc" horiz-adv-x="829" 
d="M104 522v291h621v-291h-621z" />
    <glyph glyph-name="endash.uc" horiz-adv-x="1107" 
d="M94 565v215h920v-215h-920z" />
    <glyph glyph-name="emdash.uc" horiz-adv-x="1937" 
d="M94 565v215h1751v-215h-1751z" />
    <glyph glyph-name="guilsinglleft.uc" horiz-adv-x="628" 
d="M317 217l-254 399l254 400h250l-245 -400l245 -399h-250z" />
    <glyph glyph-name="guilsinglright.uc" horiz-adv-x="628" 
d="M61 217l246 399l-246 400h248l256 -400l-256 -399h-248z" />
    <glyph glyph-name="guillemotleft.uc" horiz-adv-x="983" 
d="M317 217l-254 399l254 400h236l-244 -400l244 -399h-236zM686 217l-254 399l254 400h236l-244 -400l244 -399h-236z" />
    <glyph glyph-name="guillemotright.uc" horiz-adv-x="983" 
d="M61 217l246 399l-246 400h236l256 -400l-256 -399h-236zM430 217l246 399l-246 400h236l256 -400l-256 -399h-236z" />
    <glyph glyph-name="parenleft.uc" horiz-adv-x="729" 
d="M420 -201q-340 401 -340 903q0 505 340 906h285q-273 -427 -273 -906q0 -476 273 -903h-285z" />
    <glyph glyph-name="parenright.uc" horiz-adv-x="729" 
d="M23 -201q274 422 274 906q0 481 -274 903h286q338 -404 338 -903q0 -502 -338 -906h-286z" />
    <glyph glyph-name="bracketleft.uc" horiz-adv-x="837" 
d="M135 -190v1794h625v-267h-256v-1261h256v-266h-625z" />
    <glyph glyph-name="bracketright.uc" horiz-adv-x="837" 
d="M80 -190v266h254v1261h-254v267h622v-1794h-622z" />
    <glyph glyph-name="braceleft.uc" horiz-adv-x="856" 
d="M778 -193q-313 0 -446.5 110.5t-95.5 350.5l22 142q13 77 -34.5 123.5t-160.5 46.5v256q113 0 160.5 46t34.5 122l-22 139q-39 247 93.5 355t448.5 108v-269q-117 -5 -154.5 -42.5t-25.5 -139.5l18 -174q12 -104 -42.5 -174t-167.5 -96q113 -26 167.5 -97t42.5 -174
l-18 -174q-12 -106 25.5 -146t154.5 -46v-267z" />
    <glyph glyph-name="braceright.uc" horiz-adv-x="856" 
d="M78 -193v267q117 6 154.5 46t25.5 146l-18 174q-12 103 42.5 174t168.5 97q-113 26 -168 96t-43 174l18 174q12 102 -25.5 139.5t-154.5 42.5v269q316 0 449 -108t94 -355l-23 -139q-13 -76 34.5 -122t160.5 -46v-256q-113 0 -160.5 -46.5t-34.5 -123.5l23 -142
q38 -240 -96 -350.5t-447 -110.5z" />
    <glyph glyph-name="slash.uc" horiz-adv-x="888" 
d="M-8 -172l608 1763h293l-608 -1763h-293z" />
    <glyph glyph-name="backslash.uc" horiz-adv-x="888" 
d="M604 -172l-608 1763h293l606 -1763h-291z" />
    <glyph glyph-name="bar.uc" horiz-adv-x="548" 
d="M145 -172v1763h256v-1763h-256z" />
    <glyph glyph-name="at.uc" horiz-adv-x="1886" 
d="M942 -164q-200 0 -366.5 65t-276.5 177.5t-170.5 263.5t-60.5 324q0 157 48.5 298t135 248t200.5 185t249.5 118.5t277.5 40.5q179 0 334 -53.5t266.5 -149t175.5 -234t64 -302.5q0 -117 -25 -212t-67 -158t-99 -105.5t-119 -61t-129 -18.5q-255 0 -299 166
q-84 -172 -272 -172q-150 0 -240 102.5t-90 276.5q0 211 115.5 343t286.5 132q167 0 219 -121l14 105h301l-67 -553q-16 -135 86 -135q93 0 156 103t63 312q0 267 -182 429.5t-488 162.5q-155 0 -291 -53t-235.5 -149t-157 -238t-57.5 -311q0 -146 45 -269.5t131.5 -217
t223 -146t308.5 -52.5q168 0 303 50t217 129h187q-102 -147 -293 -233.5t-422 -86.5zM907 496q67 0 114.5 66.5t47.5 170.5q0 66 -33 103.5t-96 37.5q-68 0 -111 -63t-43 -164q0 -67 31.5 -109t89.5 -42z" />
    <glyph glyph-name="grave.uc" horiz-adv-x="819" 
d="M293 1554l-205 299h381l100 -299h-276z" />
    <glyph glyph-name="dieresis.uc" horiz-adv-x="819" 
d="M180 1552q-72 0 -123 50t-51 120q0 72 51 122t123 50q74 0 125 -50t51 -122q0 -71 -51.5 -120.5t-124.5 -49.5zM637 1552q-73 0 -123.5 49.5t-50.5 120.5q0 72 50.5 122t123.5 50q74 0 125 -50t51 -122q0 -71 -51.5 -120.5t-124.5 -49.5z" />
    <glyph glyph-name="macron.uc" horiz-adv-x="819" 
d="M80 1579v219h659v-219h-659z" />
    <glyph glyph-name="acute.uc" horiz-adv-x="819" 
d="M250 1554l104 299h383l-211 -299h-276z" />
    <glyph glyph-name="circumflex.uc" horiz-adv-x="819" 
d="M27 1554l233 299h307l226 -299h-267l-120 101l-119 -101h-260z" />
    <glyph glyph-name="caron.uc" horiz-adv-x="819" 
d="M250 1554l-225 299h266l119 -100l120 100h261l-234 -299h-307z" />
    <glyph glyph-name="breve.uc" horiz-adv-x="819" 
d="M408 1540q-150 0 -239.5 83t-98.5 230h237q5 -43 31 -68.5t70 -25.5t72 25.5t34 68.5h236q-12 -146 -103.5 -229.5t-238.5 -83.5z" />
    <glyph glyph-name="dotaccent.uc" horiz-adv-x="819" 
d="M410 1550q-83 0 -139 53t-56 132q0 78 56 130t139 52t138.5 -52t55.5 -130q0 -79 -55.5 -132t-138.5 -53z" />
    <glyph glyph-name="ring.uc" horiz-adv-x="819" 
d="M410 1659q41 0 67.5 29t26.5 73q0 46 -26.5 75.5t-67.5 29.5q-42 0 -68.5 -29.5t-26.5 -75.5q0 -45 26.5 -73.5t68.5 -28.5zM410 1524q-101 0 -173.5 70t-72.5 167q0 98 72.5 168t173.5 70t173 -70t72 -168q0 -97 -72 -167t-173 -70z" />
    <glyph glyph-name="tilde.uc" horiz-adv-x="819" 
d="M543 1552q-50 0 -98 17.5t-85.5 35t-62.5 17.5q-24 0 -41.5 -19t-22.5 -49h-208q10 154 79 234t170 80q61 0 140 -34t108 -34q52 0 66 66h207q-10 -153 -81.5 -233.5t-170.5 -80.5z" />
    <glyph glyph-name="hungarumlaut.uc" horiz-adv-x="819" 
d="M80 1554l84 299h313l-151 -299h-246zM477 1554l84 299h316l-154 -299h-246z" />
    <glyph glyph-name="f.short" horiz-adv-x="770" 
d="M164 0v821h-135v250h135v94q0 194 111.5 294t306.5 100q81 0 163 -21v-268q-41 12 -96 12q-61 0 -91 -31t-30 -86v-94h217v-250h-217v-821h-364z" />
    <glyph glyph-name="f_f.short" horiz-adv-x="1445" 
d="M164 0v821h-135v250h135v82q0 194 111 292.5t307 98.5q85 0 163 -20v-269q-51 15 -98 15q-59 0 -89 -32t-30 -85v-82h312v94q0 195 112 294.5t308 99.5q79 0 161 -21v-268q-41 12 -96 12q-119 0 -119 -117v-94h215v-250h-215v-821h-366v821h-312v-821h-364z" />
    </font>
</defs>
</svg>
